<?xml version="1.0" standalone="no"?>
<!DOCTYPE svg PUBLIC "-//W3C//DTD SVG 1.1//EN" "http://www.w3.org/Graphics/SVG/1.1/DTD/svg11.dtd">
<svg xmlns="http://www.w3.org/2000/svg">
<defs >
<font id="NoticiaText" horiz-adv-x="1144" ><font-face
    font-family="Noticia Text"
    units-per-em="2048"
    panose-1="2 0 8 3 6 0 0 2 0 4"
    ascent="2202"
    descent="-593"
    alphabetic="0" />
<glyph unicode=" " glyph-name="space" horiz-adv-x="550" />
<glyph unicode="!" glyph-name="exclam" horiz-adv-x="642" d="M170 99Q170 140 179 177T205 243T244 288T291 305Q334 305 371 295T436 269T480 230T496 182Q496 141 487 105T461 40T422 -5T374 -22Q331 -22 294 -13T230 13T186 52T170 99ZM175 1540L482 1562L502
1540L429 410H248L175 1540Z" />
<glyph unicode="&quot;" glyph-name="quotedbl" horiz-adv-x="664" d="M80 1540H296V1498L233 1137H80V1540ZM358 1540H574V1498L511 1137H358V1540Z" />
<glyph unicode="#" glyph-name="numbersign" horiz-adv-x="1387" d="M770 286H484L444 0H249V20L286 286H90V463H311L372 889H156V1066H397L438 1353H633V1333L595 1066H881L922 1353H1117V1333L1079 1066H1267V889H1054L993 463H1201V286H968L928 0H733V20L770
286ZM509 463H795L856 889H570L509 463Z" />
<glyph unicode="$" glyph-name="dollar" horiz-adv-x="1130" d="M664 813Q895 683 982 585T1070 345Q1070 170 924 74Q819 5 660 -14V-226H495V-22Q395 -20 302 -5Q195 12 120 41L99 320L266 345L350 148Q391 138 440 132Q467 129 495 128V575Q486 580 477 586Q222
733 151 823T79 1034Q79 1196 220 1285Q327 1353 495 1369V1562H660V1374Q736 1371 809 1361Q907 1347 983 1323L1004 1033L849 1011L766 1208Q727 1217 682 1221Q671 1222 660 1223V815Q662 814 664 813ZM740 155Q752 179 761 215T770 286Q770 366 707 426Q688
444 660 465V137Q704 144 740 155ZM398 1198Q390 1172 385 1140T379 1079Q379 1016 428 969Q449 949 495 917V1219Q445 1212 398 1198Z" />
<glyph unicode="%" glyph-name="percent" horiz-adv-x="1693" d="M1197 1353H1412V1333L446 0H231V20L1197 1353ZM90 1059Q90 1124 115 1181T182 1282T282 1350T406 1375Q471 1375 528 1350T629 1282T697 1182T722 1059Q722 993 697 936T629 836T529 768T406 743Q340
743 283 768T183 835T115 935T90 1059ZM279 1059Q279 976 313 941T406 906Q431 906 454 914T494 941T522 988T532 1059Q532 1101 522 1130T495 1177T454 1203T406 1212Q347 1212 313 1177T279 1059ZM921 294Q921 359 946 416T1013 517T1113 585T1237 610Q1302 610
1359 585T1460 517T1528 417T1553 294Q1553 228 1528 171T1460 71T1360 3T1237 -22Q1171 -22 1114 3T1014 70T946 170T921 294ZM1110 294Q1110 211 1144 176T1237 141Q1262 141 1285 149T1325 176T1353 223T1363 294Q1363 336 1353 365T1326 412T1285 438T1237
447Q1178 447 1144 412T1110 294Z" />
<glyph unicode="&amp;" glyph-name="ampersand" horiz-adv-x="1581" d="M1312 529Q1312 438 1276 356T1171 203Q1224 167 1273 147T1368 127Q1410 127 1446 132T1512 144Q1545 151 1573 161V45Q1546 26 1510 11Q1479 -2 1435 -12T1333 -22Q1251 -22 1168 4T1000
78Q909 30 797 4T553 -22Q428 -22 330 -5T164 49T60 141T24 274V296Q24 365 51 425T122 536T224 628T342 701Q298 751 269 794T223 875T198 946T190 1010V1029Q190 1098 223 1160T319 1271T474 1347T685 1375Q782 1375 855 1356T977 1303T1050 1220T1075 1113V1091Q1075
1031 1052 981T982 882T860 784T684 679Q761 594 838 510T992 352Q1012 392 1022 437T1032 536V542L869 576L889 694L1312 716V529ZM573 127Q725 127 836 188Q739 263 645 357T457 561Q427 544 402 520T360 466T334 405T324 340V327Q324 228 389 178T573 127ZM775
1078Q775 1148 735 1187T633 1226Q609 1226 588 1221T552 1211Q534 1204 520 1196Q511 1180 505 1161Q499 1144 495 1121T490 1067V1056Q490 978 511 920T571 811Q674 877 724 937T775 1065V1078Z" />
<glyph unicode="&apos;" glyph-name="quotesingle" horiz-adv-x="386" d="M70 1540H286V1498L223 1137H70V1540Z" />
<glyph unicode="(" glyph-name="parenleft" horiz-adv-x="743" d="M403 543Q403 430 415 328T448 134T494 -36T548 -181Q611 -335 693 -456L580 -516Q448 -392 345 -230Q301 -161 259 -78T183 103T130 311T110 543Q110 664 130 774T183 982T258 1162T345 1315Q448
1476 580 1601L693 1541Q611 1421 548 1267Q521 1201 495 1122T448 952T416 758T403 543Z" />
<glyph unicode=")" glyph-name="parenright" horiz-adv-x="743" d="M340 543Q340 655 328 757T295 951T248 1122T195 1267Q131 1421 50 1541L163 1601Q294 1476 398 1315Q442 1246 484 1163T559 982T612 775T633 543Q633 421 613 311T559 104T484 -77T398 -230Q294
-392 163 -516L50 -456Q131 -335 195 -181Q222 -115 248 -36T294 134T327 327T340 543Z" />
<glyph unicode="*" glyph-name="asterisk" horiz-adv-x="895" d="M515 1066L554 829V772H341V829L380 1065L193 913L145 885L41 1068L83 1094L312 1181L87 1267L40 1296L145 1479L193 1451L380 1298L341 1535V1592H554V1535L515 1299L702 1451L750 1479L854 1296L807
1267L583 1182L808 1097L855 1068L750 885L702 913L515 1066Z" />
<glyph unicode="+" glyph-name="plus" horiz-adv-x="1103" d="M655 1005V697H943V490H655V182H448V490H160V697H448V1005H655Z" />
<glyph unicode="," glyph-name="comma" horiz-adv-x="596" d="M100 98Q100 140 110 177T136 243T175 288T222 305Q245 305 270 302T319 291T364 271T402 241Q412 230 422 215T439 177T451 123T456 50Q456 -10 447 -66T411 -181T333 -301T199 -436L117 -340Q168
-297 203 -260T259 -189T289 -127T298 -73Q298 -49 280 -36T232 -16Q173 0 137 30T100 98Z" />
<glyph unicode="-" glyph-name="hyphen" horiz-adv-x="1053" d="M160 697H893V490H160V697Z" />
<glyph unicode="." glyph-name="period" horiz-adv-x="566" d="M100 99Q100 140 109 177T135 243T174 288T221 305Q264 305 301 296T366 269T410 230T426 182Q426 141 417 105T391 40T352 -5T304 -22Q261 -22 224 -13T160 13T116 52T100 99Z" />
<glyph unicode="/" glyph-name="slash" horiz-adv-x="883" d="M638 1540H853V1520L285 -295H70V-275L638 1540Z" />
<glyph unicode="0" glyph-name="zero" horiz-adv-x="1236" d="M591 -22Q338 -22 211 110T84 517V622Q84 987 225 1181T628 1375Q902 1375 1027 1243T1152 835V731Q1152 348 1016 163T591 -22ZM848 782Q848 1002 797 1114T618 1226Q497 1226 443 1107T388 712V572Q388
345 442 236T616 127Q740 127 794 249T848 642V782Z" />
<glyph unicode="1" glyph-name="one" horiz-adv-x="826" d="M101 118L294 152V1156H58L48 1259L393 1353H594V152L786 118L766 0H121L101 118Z" />
<glyph unicode="2" glyph-name="two" horiz-adv-x="1080" d="M699 1040Q699 1131 652 1178T512 1226Q453 1226 402 1216T311 1191L251 978L92 989V1270Q200 1320 316 1347T543 1375Q758 1375 878 1287T999 1037Q999 945 948 849T812 651T618 445T393 230L397 220H774L856
413L1010 390L987 0H56V185Q195 322 312 439T516 659T650 856T699 1040Z" />
<glyph unicode="3" glyph-name="three" horiz-adv-x="1013" d="M440 -22Q343 -22 237 5T52 72V350L208 362L263 160Q295 148 348 138T455 127Q550 127 604 194T658 388Q658 512 596 579T435 647H312V796H425Q518 796 564 855T610 1027Q610 1125 566 1175T434 1226Q399
1226 362 1221T290 1204L234 1001L79 1013V1301Q160 1332 265 1353T470 1375Q680 1375 795 1291T910 1051Q910 948 856 865T687 733Q806 700 881 612T957 405Q957 201 815 90T440 -22Z" />
<glyph unicode="4" glyph-name="four" horiz-adv-x="1053" d="M380 118L583 152V322H32L2 444L590 1353H884L307 481L312 471H583V746H883V471H1025L1049 351L883 317V152L1045 118L1025 0H400L380 118Z" />
<glyph unicode="5" glyph-name="five" horiz-adv-x="1078" d="M494 -22Q394 -22 283 2T80 66V343L245 351L306 157Q344 144 395 136T500 127Q604 127 665 200T726 408Q726 533 661 599T469 665Q401 665 332 648T217 609L104 706L141 1353H954V1133H310L290 771Q340
793 407 807T555 822Q773 822 899 720T1026 431Q1025 224 873 101T494 -22Z" />
<glyph unicode="6" glyph-name="six" horiz-adv-x="1111" d="M74 572Q74 924 282 1149T782 1375Q825 1375 876 1370T974 1353V1217Q929 1221 887 1223T804 1226Q626 1226 503 1079T379 721L389 717Q450 760 514 778T663 797Q838 797 955 693T1073 427V398Q1073
206 938 92T575 -22Q329 -22 202 112T74 500V572ZM773 388Q773 507 714 577T559 648Q518 648 471 635T379 597V521Q379 332 433 230T592 127Q678 127 725 191T773 372V388Z" />
<glyph unicode="7" glyph-name="seven" horiz-adv-x="951" d="M211 930L46 938V1353H969V1236L479 0H190L688 1123L682 1133H264L211 930Z" />
<glyph unicode="8" glyph-name="eight" horiz-adv-x="1080" d="M42 292Q42 412 120 505T332 649Q206 712 150 790T93 986Q93 1156 222 1265T572 1375Q770 1375 880 1299T991 1085Q991 992 923 909T723 768Q875 708 958 615T1042 384Q1042 202 900 90T519 -22Q289
-22 166 60T42 292ZM437 602Q396 560 369 496T342 346Q342 241 393 184T539 127Q636 127 689 182T742 335Q742 421 686 473T490 581L437 602ZM392 1043Q392 955 443 903T613 809Q651 851 671 913T691 1055Q691 1138 652 1182T550 1226Q480 1226 436 1175T392 1043Z"
/>
<glyph unicode="9" glyph-name="nine" horiz-adv-x="1088" d="M342 941Q342 825 397 754T537 682Q580 682 629 697T721 736V798Q721 1006 669 1116T517 1226Q428 1226 385 1156T342 957V941ZM330 -22Q286 -22 227 -16T115 1V137Q147 133 192 130T282 127Q479 127
600 263T721 612L711 616Q661 577 592 555T433 533Q269 533 156 635T42 902V931Q42 1135 172 1255T532 1375Q774 1375 898 1242T1022 844V766Q1022 390 841 184T330 -22Z" />
<glyph unicode=":" glyph-name="colon" horiz-adv-x="566" d="M100 99Q100 140 109 177T135 243T174 288T221 305Q264 305 301 296T366 269T410 230T426 182Q426 141 417 105T391 40T352 -5T304 -22Q261 -22 224 -13T160 13T116 52T100 99ZM100 810Q100 851 109
888T135 954T174 999T221 1016Q264 1016 301 1007T366 980T410 941T426 893Q426 852 417 816T391 751T352 706T304 689Q261 689 224 698T160 724T116 763T100 810Z" />
<glyph unicode=";" glyph-name="semicolon" horiz-adv-x="596" d="M101 810Q101 851 110 888T136 954T175 999T222 1016Q265 1016 302 1007T367 980T411 941T427 893Q427 852 418 816T392 751T353 706T305 689Q262 689 225 698T161 724T117 763T101 810ZM100 98Q100
140 110 177T136 243T175 288T222 305Q245 305 270 302T319 291T364 271T402 241Q412 230 422 215T439 177T451 123T456 50Q456 -10 447 -66T411 -181T333 -301T199 -436L117 -340Q168 -297 203 -260T259 -189T289 -127T298 -73Q298 -49 280 -37T232 -16Q173 -1
137 29T100 98Z" />
<glyph unicode="&lt;" glyph-name="less" horiz-adv-x="1168" d="M140 505V701L978 1075H1008V866L429 611V595L1008 341V131H978L140 505Z" />
<glyph unicode="=" glyph-name="equal" horiz-adv-x="1162" d="M160 494H1002V277H160V494ZM160 957H1002V740H160V957Z" />
<glyph unicode="&gt;" glyph-name="greater" horiz-adv-x="1168" d="M190 131H160V341L739 595V611L160 866V1075H190L1028 701V505L190 131Z" />
<glyph unicode="?" glyph-name="question" horiz-adv-x="1039" d="M566 710Q526 674 512 646T497 585Q497 549 515 533T564 516Q587 516 610 520T653 531Q676 538 698 547V426Q671 412 636 401Q606 391 563 384T466 376Q408 376 361 388T279 425T226 487T207 575Q207
616 218 652T254 725T315 802T403 889L585 1057Q621 1091 645 1118T683 1170T703 1222T709 1278Q709 1307 698 1333T663 1379T605 1410T520 1422Q475 1422 443 1417T387 1406Q361 1399 342 1390L272 1165L120 1182V1479Q174 1502 241 1520Q298 1536 377 1549T552
1562Q655 1562 738 1544T879 1490T968 1403T999 1286Q999 1224 985 1175T939 1078T855 978T727 856L566 710ZM289 99Q289 140 298 177T324 243T363 288T410 305Q453 305 490 295T555 269T599 230T615 182Q615 141 606 105T580 40T541 -5T493 -22Q450 -22 413 -13T349
13T305 52T289 99Z" />
<glyph unicode="@" glyph-name="at" horiz-adv-x="2030" d="M868 490Q848 358 854 287T915 216Q943 216 976 244T1044 316T1109 409T1165 503L1225 946Q1198 952 1169 955T1113 959Q1077 959 1045 953T990 939Q962 890 931 795T878 559L868 490ZM1506 -165Q1391
-230 1240 -270T930 -310Q672 -310 490 -243T209 -33T110 322Q110 601 241 843T628 1230T1201 1375Q1551 1375 1750 1222T1950 798Q1950 582 1867 427T1657 193T1394 102L1198 88L1117 166L1140 336Q1059 200 979 144T794 88Q660 88 604 170T571 435L583 528Q617
773 761 918T1122 1063Q1213 1063 1324 1040T1521 985L1413 209Q1541 223 1600 364T1660 750Q1660 990 1531 1112T1153 1235Q930 1235 754 1115T489 794T400 359Q400 96 559 -37T1019 -170Q1150 -170 1284 -136T1506 -59V-165Z" />
<glyph unicode="A" glyph-name="A" horiz-adv-x="1266" d="M-26 118L74 146L507 1353H770L1193 146L1292 118L1272 0H778L758 118L890 146L808 386H355L271 146L403 118L383 0H-6L-26 118ZM406 535H758L592 1023H576L406 535Z" />
<glyph unicode="B" glyph-name="B" horiz-adv-x="1234" d="M213 1201L70 1235L90 1353H659Q871 1353 990 1273T1110 1041Q1110 938 1046 854T874 720L876 704Q1011 681 1089 602T1168 403Q1168 222 1039 111T697 0H90L70 118L213 152V1201ZM513 628V149H600Q660
149 720 154T838 174Q851 215 859 274T868 392Q868 505 800 566T617 628H513ZM513 1204V777H594Q638 777 685 784T776 804Q790 841 800 895T810 1003Q810 1112 756 1158T578 1204H513Z" />
<glyph unicode="C" glyph-name="C" horiz-adv-x="1186" d="M70 604Q70 983 237 1179T735 1375Q826 1375 921 1360T1098 1316L1119 1026L964 1004L879 1203Q847 1214 801 1220T708 1226Q633 1226 558 1204T429 1148Q404 1056 387 934T370 683V550Q370 342 468 235T761
127Q846 127 941 155T1122 231V105Q1033 47 916 13T676 -22Q377 -22 224 115T70 515V604Z" />
<glyph unicode="D" glyph-name="D" horiz-adv-x="1428" d="M213 1201L70 1235L90 1353H708Q1025 1353 1186 1202T1348 765V687Q1348 370 1178 185T718 0H90L70 118L213 152V1201ZM513 1204V149H674Q733 149 797 157T912 178Q964 250 1006 372T1048 622V716Q1048
964 948 1084T641 1204H513Z" />
<glyph unicode="E" glyph-name="E" horiz-adv-x="1203" d="M513 633V149H914L997 342L1131 319L1107 0H90L70 118L213 152V1201L70 1235L90 1353H1077L1101 1033L968 1011L885 1204H513V782H800L834 894L953 874V540L834 520L800 633H513Z" />
<glyph unicode="F" glyph-name="F" horiz-adv-x="1083" d="M511 633V152L713 118L693 0H88L68 118L211 152V1201L68 1235L88 1353H1015L1039 1033L916 1011L833 1204H511V782H761L795 894L913 874V540L795 520L761 633H511Z" />
<glyph unicode="G" glyph-name="G" horiz-adv-x="1330" d="M1154 105Q1057 46 938 13T675 -22Q385 -22 230 112T74 505V594Q74 974 248 1174T746 1375Q849 1375 951 1361T1139 1318L1160 1028L1005 1006L921 1203Q875 1215 824 1220T723 1226Q647 1226 573 1205T433
1148Q407 1053 391 933T374 683V550Q374 347 475 237T737 127Q765 127 795 130T854 139V494L711 528L731 646H1276L1296 528L1154 494V105Z" />
<glyph unicode="H" glyph-name="H" horiz-adv-x="1541" d="M209 1201L66 1235L86 1353H631L651 1235L509 1201V788H1033V1201L891 1235L911 1353H1457L1477 1235L1333 1201V152L1477 118L1457 0H911L891 118L1033 152V639H509V152L651 118L631 0H86L66 118L209 152V1201Z" />
<glyph unicode="I" glyph-name="I" horiz-adv-x="717" d="M211 1201L68 1235L88 1353H633L653 1235L511 1201V152L653 118L633 0H88L68 118L211 152V1201Z" />
<glyph unicode="J" glyph-name="J" horiz-adv-x="897" d="M739 336Q739 161 638 70T327 -22Q254 -22 177 -7T43 31L22 311L175 333L259 137Q295 126 336 126Q360 126 383 130T418 139Q426 168 432 231T439 369V1201L246 1235L266 1353H861L881 1235L739 1201V336Z" />
<glyph unicode="K" glyph-name="K" horiz-adv-x="1394" d="M64 118L207 152V1201L64 1235L84 1353H629L649 1235L507 1201V734L521 728L1024 1214L915 1234L935 1353H1383L1403 1235L1262 1199L865 821L1307 147L1424 118L1404 0H1060L656 622L507 480V152L649
118L629 0H84L64 118Z" />
<glyph unicode="L" glyph-name="L" horiz-adv-x="1066" d="M211 1201L68 1235L88 1353H633L653 1235L511 1201V149H777L860 342L1014 320L989 0H88L68 118L211 152V1201Z" />
<glyph unicode="M" glyph-name="M" horiz-adv-x="2011" d="M207 1201L64 1235L84 1353H628L999 372H1015L1372 1353H1927L1947 1235L1805 1201V152L1947 118L1927 0H1382L1362 118L1505 152V1135H1489L1065 0H860L423 1135H407V152L549 118L529 0H84L64 118L207
152V1201Z" />
<glyph unicode="N" glyph-name="N" horiz-adv-x="1579" d="M211 1201L68 1235L88 1353H608L1200 252H1216V1201L1072 1235L1092 1353H1539L1559 1235L1417 1201V0H1018L427 1100H411V152L573 118L553 0H88L68 118L211 152V1201Z" />
<glyph unicode="O" glyph-name="O" horiz-adv-x="1407" d="M695 -22Q392 -22 239 115T86 525V604Q86 998 252 1186T734 1375Q1036 1375 1191 1238T1347 827V749Q1347 364 1184 171T695 -22ZM1047 783Q1047 1000 959 1113T697 1226Q622 1226 555 1206T445 1158Q427
1094 407 965T386 703V570Q386 361 483 244T737 127Q817 127 886 149T989 196Q1010 271 1028 399T1047 650V783Z" />
<glyph unicode="P" glyph-name="P" horiz-adv-x="1166" d="M213 1201L70 1235L90 1353H665Q911 1353 1034 1263T1158 997Q1158 808 1026 700T686 591H513V152L725 118L705 0H90L70 118L213 152V1201ZM513 1204V740H623Q681 740 737 748T826 768Q839 807 846 862T854
968Q854 1088 788 1146T593 1204H513Z" />
<glyph unicode="Q" glyph-name="Q" horiz-adv-x="1438" d="M683 -22Q381 -22 228 115T74 525V604Q74 990 236 1182T722 1375Q1024 1375 1179 1238T1335 827V749Q1335 517 1277 355T1097 99Q1144 10 1182 -17T1271 -45Q1295 -45 1330 -38T1390 -20V-140Q1351 -163
1289 -178T1163 -194Q1057 -194 984 -151T863 -11L860 -5Q777 -22 683 -22ZM1035 783Q1035 1005 946 1115T685 1226Q613 1226 545 1207T433 1158Q411 1077 393 949T374 703V570Q374 545 375 522T379 478Q407 533 467 564T600 595Q728 595 822 531T988 323L1000
298Q1012 362 1023 456T1035 650V783ZM433 353Q433 327 438 305T457 262Q507 193 577 160T725 127Q743 127 760 128T793 131L749 223Q695 334 642 390T530 446Q482 446 458 418T433 353Z" />
<glyph unicode="R" glyph-name="R" horiz-adv-x="1281" d="M213 1201L70 1235L90 1353H649Q874 1353 997 1261T1120 987Q1120 867 1063 782T896 644L890 625L1142 153L1265 118L1245 0H936L626 591H513V152L655 118L635 0H90L70 118L213 152V1201ZM513 1204V740H586Q656
740 708 747T790 767Q802 808 809 861T816 969Q816 1105 754 1154T564 1204H513Z" />
<glyph unicode="S" glyph-name="S" horiz-adv-x="1130" d="M664 813Q895 683 982 585T1070 345Q1070 170 924 74T525 -22Q409 -22 302 -5T120 41L99 320L266 345L350 148Q391 138 440 133T540 127Q593 127 646 135T740 155Q752 179 761 215T770 286Q770 366 707
426T477 586Q222 733 151 823T79 1034Q79 1196 220 1285T611 1375Q712 1375 809 1361T983 1323L1004 1033L849 1011L766 1208Q727 1217 683 1221T595 1226Q545 1226 495 1219T398 1198Q390 1172 385 1140T379 1079Q379 1016 428 969T664 813Z" />
<glyph unicode="T" glyph-name="T" horiz-adv-x="1207" d="M454 1204H219L157 1034L8 1043L23 1353H1185L1199 1043L1051 1034L988 1204H754V152L897 118L877 0H331L311 118L454 152V1204Z" />
<glyph unicode="U" glyph-name="U" horiz-adv-x="1400" d="M444 546Q444 338 523 233T747 127Q820 127 884 143T985 183Q1018 245 1040 334T1063 521V1201L920 1235L940 1353H1376L1396 1235L1254 1201V544Q1254 258 1118 118T698 -22Q411 -22 278 107T144 491V1201L0
1235L20 1353H566L586 1235L444 1201V546Z" />
<glyph unicode="V" glyph-name="V" horiz-adv-x="1258" d="M520 1234L377 1207L682 302H698L1002 1206L859 1234L879 1353H1282L1302 1234L1207 1204L784 0H493L69 1204L-26 1234L-6 1353H500L520 1234Z" />
<glyph unicode="W" glyph-name="W" horiz-adv-x="2082" d="M507 1234L363 1206L647 340H663L981 1351V1353H1252L1561 340H1577L1831 1206L1683 1234L1703 1353H2106L2126 1234L2038 1206L1667 0H1376L1078 956H1062L760 0H468L62 1206L-30 1234L-10 1353H487L507 1234Z" />
<glyph unicode="X" glyph-name="X" horiz-adv-x="1351" d="M748 118L874 145L626 521L375 145L497 118L477 0H56L36 118L159 151L516 688L176 1202L54 1234L74 1353H615L635 1234L509 1208L736 863L967 1208L843 1234L863 1353H1288L1308 1234L1184 1202L846 696L1206
151L1329 118L1309 0H768L748 118Z" />
<glyph unicode="Y" glyph-name="Y" horiz-adv-x="1172" d="M452 586L63 1203L-54 1234L-34 1353H486L506 1234L364 1207L641 763L905 1207L770 1234L790 1353H1212L1232 1234L1119 1203L752 587V152L894 118L874 0H329L309 118L452 152V586Z" />
<glyph unicode="Z" glyph-name="Z" horiz-adv-x="1165" d="M1095 1353V1209L399 163L404 149H886L968 342L1121 320L1097 0H50V145L745 1190L740 1204H299L217 1011L63 1033L88 1353H1095Z" />
<glyph unicode="[" glyph-name="bracketleft" horiz-adv-x="678" d="M150 1677H618V1561H427V-341H618V-457H150V1677Z" />
<glyph unicode="\" glyph-name="backslash" horiz-adv-x="883" d="M813 -275V-295H598L30 1520V1540H245L813 -275Z" />
<glyph unicode="]" glyph-name="bracketright" horiz-adv-x="678" d="M528 -457H60V-341H251V1561H60V1677H528V-457Z" />
<glyph unicode="^" glyph-name="asciicircum" horiz-adv-x="1104" d="M481 1562H603L984 1079V1049H785L550 1343H534L300 1049H100V1079L481 1562Z" />
<glyph unicode="_" glyph-name="underscore" horiz-adv-x="1176" d="M70 -225H1106V-399H70V-225Z" />
<glyph unicode="`" glyph-name="grave" horiz-adv-x="888" d="M688 1275L520 1265L200 1594V1660L485 1670L688 1307V1275Z" />
<glyph unicode="a" glyph-name="a" horiz-adv-x="1188" d="M1001 152L1144 118L1124 0L789 -22L732 136Q670 65 577 22T376 -22Q228 -22 149 44T70 237Q70 427 231 522T711 617V710Q711 842 666 904T518 967Q476 967 440 963T376 952L316 740L148 750V1053Q233
1077 339 1092T546 1107Q778 1107 889 1015T1001 735V152ZM711 477Q611 477 525 461T390 419Q378 394 369 357T360 275Q360 199 391 159T480 118Q543 118 606 156T711 245V477Z" />
<glyph unicode="b" glyph-name="b" horiz-adv-x="1206" d="M437 967L451 961Q515 1032 595 1069T765 1107Q960 1107 1049 999T1138 666V572Q1138 299 997 139T615 -22Q509 -22 379 3T147 63V1388L4 1422L24 1540L437 1562V967ZM848 642Q848 810 808 888T673 967Q614
967 552 926T437 818V145Q472 135 527 127T635 118Q677 118 723 130T805 160Q824 233 836 324T848 523V642Z" />
<glyph unicode="c" glyph-name="c" horiz-adv-x="992" d="M62 492Q62 794 203 950T594 1107Q675 1107 762 1091T923 1044L942 790L772 767L699 957Q666 963 635 965T575 967Q528 967 482 956T402 927Q382 860 367 759T352 552V443Q352 283 425 201T639 118Q703
118 787 141T934 191V75Q858 31 757 5T550 -22Q320 -22 191 87T62 399V492Z" />
<glyph unicode="d" glyph-name="d" horiz-adv-x="1242" d="M1067 152L1210 118L1190 0L855 -22L798 136Q742 65 652 22T461 -22Q267 -22 167 87T66 413V506Q66 788 207 947T604 1107Q642 1107 688 1102T777 1088V1388L634 1422L654 1540L1067 1562V152ZM356 423Q356
273 403 196T543 118Q602 118 664 153T777 245V942Q741 951 689 959T584 967Q527 967 478 954T396 920Q379 851 368 756T356 553V423Z" />
<glyph unicode="e" glyph-name="e" horiz-adv-x="1078" d="M354 513V447Q354 287 431 203T666 118Q734 118 824 138T979 183V67Q906 30 791 4T557 -22Q320 -22 192 90T64 414V497Q64 785 208 946T608 1107Q836 1107 934 999T1032 643V513H354ZM402 928Q386 870
374 796T357 653H742Q742 828 702 897T566 967Q524 967 482 957T402 928Z" />
<glyph unicode="f" glyph-name="f" horiz-adv-x="757" d="M211 1193Q211 1377 309 1469T595 1562Q646 1562 701 1552T797 1525L754 1374Q710 1390 647 1402T531 1415Q518 1380 510 1327T501 1209V1085H695L715 967L501 933V152L694 118L674 0H88L68 118L211 152V933L58
967L78 1085H211V1193Z" />
<glyph unicode="g" glyph-name="g" horiz-adv-x="1092" d="M872 958L868 948Q917 920 952 867T988 750V735Q988 566 861 467T528 368Q492 368 459 370T396 378Q352 340 325 306T298 251Q298 227 321 218T389 208H596Q839 208 963 131T1088 -101Q1088 -273 942
-365T526 -457Q273 -457 156 -410T38 -259Q38 -197 89 -132T234 -6Q164 12 126 51T88 150Q88 216 141 286T276 413Q179 457 134 526T88 677V701Q88 896 212 1001T544 1107Q580 1107 619 1102T695 1085H1025L1043 958H872ZM373 -22Q327 -67 298 -116T268 -205Q268
-272 333 -294T586 -317Q657 -317 725 -307T851 -276Q863 -255 870 -224T878 -161Q878 -83 812 -53T595 -22H375H373ZM698 764Q698 862 650 914T528 967Q499 967 470 962T418 947Q401 909 390 855T378 744V706Q378 617 429 563T548 508Q583 508 611 513T658 528Q675
562 686 614T698 726V764Z" />
<glyph unicode="h" glyph-name="h" horiz-adv-x="1378" d="M56 118L199 152V1388L56 1422L76 1540L489 1562V967L503 961Q579 1033 665 1070T843 1107Q1012 1107 1101 1021T1191 766V152L1334 118L1314 0H778L758 118L901 152V751Q901 860 867 913T753 967Q693
967 621 924T489 818V152L632 118L612 0H76L56 118Z" />
<glyph unicode="i" glyph-name="i" horiz-adv-x="696" d="M501 152L644 118L624 0H88L68 118L211 152V933L68 967L88 1085L501 1107V152ZM186 1395Q186 1466 223 1519T311 1573Q384 1573 436 1536T488 1446Q488 1375 450 1323T363 1270Q291 1270 239 1307T186 1395Z" />
<glyph unicode="j" glyph-name="j" horiz-adv-x="656" d="M510 -47Q510 -260 425 -358T148 -457Q78 -457 3 -446T-116 -420L-80 -269Q-23 -285 47 -297T180 -310Q197 -277 208 -218T220 -86V933L47 967L67 1085L510 1107V-47ZM195 1395Q195 1466 232 1519T320
1573Q393 1573 445 1536T497 1446Q497 1375 459 1323T372 1270Q300 1270 248 1307T195 1395Z" />
<glyph unicode="k" glyph-name="k" horiz-adv-x="1274" d="M56 118L199 152V1388L56 1422L76 1540L489 1562V619L503 613L891 950L785 967L805 1085H1220L1240 967L1128 940L803 676L1132 152L1258 118L1238 0H920L599 510L489 421V152L632 118L612 0H76L56 118Z" />
<glyph unicode="l" glyph-name="l" horiz-adv-x="664" d="M199 1388L56 1422L76 1540L489 1562V152L632 118L612 0H76L56 118L199 152V1388Z" />
<glyph unicode="m" glyph-name="m" horiz-adv-x="2094" d="M68 118L211 152V933L68 967L88 1085L423 1107L481 949Q575 1036 665 1071T855 1107Q966 1107 1041 1072T1172 949Q1258 1029 1357 1068T1557 1107Q1727 1107 1816 1021T1905 766V152L2048 118L2028 0H1492L1472
118L1615 152V751Q1615 862 1580 914T1467 967Q1409 967 1337 925T1203 818V152L1346 118L1326 0H790L770 118L913 152V751Q913 865 877 916T765 967Q708 967 639 928T501 818V152L644 118L624 0H88L68 118Z" />
<glyph unicode="n" glyph-name="n" horiz-adv-x="1392" d="M68 118L211 152V933L68 967L88 1085L423 1107L481 949Q575 1036 665 1071T855 1107Q1025 1107 1114 1020T1203 766V152L1346 118L1326 0H790L770 118L913 152V751Q913 866 877 916T765 967Q712 967 644
930T501 818V152L644 118L624 0H88L68 118Z" />
<glyph unicode="o" glyph-name="o" horiz-adv-x="1168" d="M566 -22Q325 -22 194 94T62 419V512Q62 791 207 949T592 1107Q830 1107 967 992T1104 656V562Q1104 295 961 137T566 -22ZM814 622Q814 790 745 878T568 967Q520 967 477 956T402 927Q379 857 366 764T352
572V453Q352 293 423 206T597 118Q647 118 690 129T764 158Q786 215 800 305T814 503V622Z" />
<glyph unicode="p" glyph-name="p" horiz-adv-x="1244" d="M888 622Q888 796 845 881T702 967Q648 967 585 926T467 818V145Q516 132 564 125T650 118Q704 118 755 129T841 158Q857 212 872 310T888 503V622ZM177 933L34 967L54 1085L389 1107L447 949Q522 1028
610 1067T794 1107Q986 1107 1082 995T1178 656V562Q1178 293 1040 136T660 -22Q609 -22 562 -15T467 3V-282L610 -316L590 -435H54L34 -316L177 -282V933Z" />
<glyph unicode="q" glyph-name="q" horiz-adv-x="1167" d="M765 96L755 100Q698 47 608 13T422 -22Q250 -22 157 87T64 409V492Q64 770 208 938T589 1107Q686 1107 808 1091T1055 1043V-457L642 -435L622 -317L765 -283V96ZM354 453Q354 287 398 203T525 118Q581
118 645 153T765 245V944Q722 955 674 961T577 967Q524 967 476 954T394 920Q378 859 366 763T354 572V453Z" />
<glyph unicode="r" glyph-name="r" horiz-adv-x="919" d="M211 933L68 967L88 1085L423 1107L481 949Q525 1031 589 1069T738 1107Q778 1107 822 1096T903 1065L878 762H686L659 951Q652 953 645 954T632 955Q602 955 568 919T501 818V152L677 118L657 0H88L68
118L211 152V933Z" />
<glyph unicode="s" glyph-name="s" horiz-adv-x="962" d="M591 664Q776 564 847 486T918 286Q918 139 796 59T450 -22Q343 -22 248 -3T84 48L74 308L243 328L302 139Q336 129 376 124T457 118Q503 118 544 123T621 139Q625 155 626 175T628 215Q628 280 579 328T377
462Q205 556 136 628T66 818Q66 952 184 1029T525 1107Q604 1107 694 1090T870 1039L879 778L710 758L649 952Q617 960 583 963T518 967Q480 967 439 962T365 946Q360 930 358 911T356 873Q356 826 399 786T591 664Z" />
<glyph unicode="t" glyph-name="t" horiz-adv-x="772" d="M699 1085L719 966L449 934V292Q449 209 475 164T580 118Q609 118 647 129T720 157V43Q666 12 596 -5T456 -22Q296 -22 228 48T159 270V934L8 966L28 1085H159L232 1378L449 1358V1085H699Z" />
<glyph unicode="u" glyph-name="u" horiz-adv-x="1316" d="M441 373Q441 241 479 180T600 118Q654 118 715 158T833 267V933L660 967L680 1085L1123 1107V152L1266 118L1246 0L911 -22L853 136Q776 57 686 18T491 -22Q321 -22 236 73T151 354V933L8 967L28 1085L441
1107V373Z" />
<glyph unicode="v" glyph-name="v" horiz-adv-x="1100" d="M1124 967L1032 948L700 0H403L68 947L-24 967L-4 1085H446L466 967L343 948L586 222H602L842 948L720 967L740 1085H1104L1124 967Z" />
<glyph unicode="w" glyph-name="w" horiz-adv-x="1769" d="M1793 967L1703 948L1414 0H1122L905 699H889L677 0H385L69 948L-24 967L-4 1085H447L467 967L342 948L561 257H577L816 1085H1059L1301 257H1317L1515 948L1387 967L1407 1085H1773L1793 967Z" />
<glyph unicode="x" glyph-name="x" horiz-adv-x="1168" d="M26 118L126 136L441 543L133 949L40 967L60 1085H510L530 967L431 953L625 698L826 953L731 967L751 1085H1114L1134 967L1038 949L731 559L1053 136L1152 118L1132 0H675L655 118L753 132L547 404L336
132L433 118L413 0H46L26 118Z" />
<glyph unicode="y" glyph-name="y" horiz-adv-x="1104" d="M1128 967L1036 948L703 -4Q617 -254 527 -355T299 -457Q228 -457 156 -439T24 -390L65 -219Q140 -252 226 -276T370 -300Q392 -287 419 -252T466 -172L72 948L-20 967L0 1085H450L470 967L347 948L590
222H606L846 948L724 967L744 1085H1108L1128 967Z" />
<glyph unicode="z" glyph-name="z" horiz-adv-x="1039" d="M790 130L842 320L986 309V0H56V95L649 943L643 955H288L236 765L92 776V1085H999V1002L398 142L404 130H790Z" />
<glyph unicode="{" glyph-name="braceleft" horiz-adv-x="864" d="M130 668H226Q287 668 311 692T336 778V1397Q336 1457 357 1508T415 1597T504 1656T616 1677H804V1561H783Q692 1561 653 1522T613 1391V828Q613 766 600 725T566 660T518 625T463 615V605Q491
605 518 595T566 561T600 495T613 392V-171Q613 -262 652 -301T783 -341H804V-457H616Q556 -457 505 -436T416 -378T357 -289T336 -177V442Q336 503 312 527T226 552H130V668Z" />
<glyph unicode="|" glyph-name="bar" horiz-adv-x="658" d="M245 1670H413V-537H245V1670Z" />
<glyph unicode="}" glyph-name="braceright" horiz-adv-x="864" d="M734 552H638Q577 552 553 528T528 442V-177Q528 -237 507 -288T449 -377T360 -436T248 -457H60V-341H81Q172 -341 211 -302T251 -171V392Q251 454 266 495T303 560T352 595T401 605V615Q378
615 352 625T304 659T266 725T251 828V1391Q251 1482 212 1521T81 1561H60V1677H248Q308 1677 359 1656T448 1598T507 1509T528 1397V778Q528 717 552 693T638 668H734V552Z" />
<glyph unicode="~" glyph-name="asciitilde" horiz-adv-x="1281" d="M140 574Q140 630 160 673T214 745T296 788T400 803Q438 803 484 793T578 769T676 737T768 706T846 681T901 671Q920 671 938 678T971 701T995 738T1004 791L1141 801V704Q1141 651 1123 609T1072
537T994 491T893 475Q859 475 813 485T716 509T612 541T514 572T431 597T376 607Q356 607 337 603T302 588T278 558T269 509L140 499V574Z" />
<glyph unicode="&#xa0;" glyph-name="uni00A0" horiz-adv-x="550" />
<glyph unicode="&#xa1;" glyph-name="exclamdown" horiz-adv-x="647" d="M477 986Q477 945 468 908T442 842T403 797T356 780Q313 780 276 790T211 816T167 855T151 903Q151 943 160 980T186 1045T225 1090T273 1107Q316 1107 353 1098T417 1072T461 1033T477
986ZM471 -435L166 -457L146 -435L218 675H399L471 -435Z" />
<glyph unicode="&#xa2;" glyph-name="cent" horiz-adv-x="1080" d="M110 492Q110 794 251 950Q361 1071 535 1099V1353H693V1105Q750 1102 810 1090Q897 1074 971 1044L990 790L820 767L747 957Q719 962 693 964V118Q755 119 835 141Q919 164 982 191V75Q906 31
804 4Q749 -10 693 -16V-245H535V-20Q350 -6 239 87Q110 196 110 399V492ZM529 955Q483 944 450 927Q430 860 415 759T400 552V443Q400 283 473 200Q500 171 535 151V956Q532 956 529 955Z" />
<glyph unicode="&#xa3;" glyph-name="sterling" horiz-adv-x="1135" d="M79 118L220 147Q220 148 225 163T237 203T248 263T253 339Q253 367 251 393T245 448T233 508T216 575H90L70 684L177 712Q165 755 157 792T143 865T135 936T132 1015Q132 1087 159 1152T246
1266T397 1345T621 1375Q701 1375 765 1362T876 1333Q930 1315 971 1292V995L825 980L750 1216Q733 1221 711 1225Q692 1229 666 1232T608 1235Q573 1235 544 1230T494 1219Q469 1212 450 1204Q442 1181 436 1154Q431 1131 427 1099T422 1028Q422 950 433 877T464
724H853V575H505Q519 521 526 473T533 375Q533 327 526 286T511 214Q501 178 490 149H808L891 342L1035 320L1010 0H99L79 118Z" />
<glyph unicode="&#xa4;" glyph-name="currency" horiz-adv-x="1248" d="M132 175L292 367Q257 414 238 469T219 588Q219 646 236 699T285 798L130 983L284 1112L439 928Q480 948 525 958T620 969Q668 969 713 959T799 928L953 1112L1108 981L954 798Q986 752 1003
699T1021 588Q1021 525 1001 469T946 365L1107 174L953 46L788 242Q710 207 620 207Q575 207 533 216T452 242L287 45L132 175ZM445 588Q445 542 459 507T496 449T552 413T620 401Q656 401 687 413T743 448T780 507T794 588Q794 634 781 669T743 727T688 763T620
775Q584 775 552 763T497 728T459 669T445 588Z" />
<glyph unicode="&#xa5;" glyph-name="yen" horiz-adv-x="1216" d="M219 400H476V528H219V695H407L87 1203L-30 1234L-10 1353H510L530 1234L388 1207L665 763L929 1207L794 1234L814 1353H1236L1256 1234L1143 1203L840 695H1022V528H776V400H1022V233H776V152L918
118L898 0H353L333 118L476 152V233H219V400Z" />
<glyph unicode="&#xa6;" glyph-name="brokenbar" horiz-adv-x="658" d="M245 320H413V-537H245V320ZM245 1670H413V813H245V1670Z" />
<glyph unicode="&#xa7;" glyph-name="section" horiz-adv-x="1209" d="M759 1047Q865 996 942 949T1069 852T1144 751T1169 638Q1169 588 1155 548T1113 477T1049 420T965 376Q1001 350 1026 325T1068 273T1092 214T1100 144Q1100 2 973 -63T595 -128Q505 -128
434 -118T312 -93Q252 -78 206 -58L228 222H378L403 35Q425 28 456 23Q482 18 520 15T610 12Q661 12 700 15T766 24Q798 29 820 36Q822 46 825 58Q827 69 828 82T830 113Q830 138 813 160T756 207T651 263T490 339Q396 382 327 425T211 516T143 616T120 733Q120
781 135 819T176 890T238 948T317 995Q258 1041 229 1091T199 1209Q199 1266 222 1316T302 1404T453 1462T687 1484Q778 1484 847 1474T965 1450Q1021 1435 1063 1416L1039 1136H888L864 1323Q842 1329 814 1333Q790 1337 755 1340T675 1344Q636 1344 601 1341T539
1333Q507 1329 481 1323Q478 1314 475 1303Q473 1293 471 1279T469 1247Q469 1223 483 1204T530 1163T619 1115T759 1047ZM628 569Q689 536 740 508T836 455Q866 479 882 508T899 572Q899 609 886 636T841 689T756 745T622 817Q571 844 526 867T441 914Q414 889
402 862T390 802Q390 769 400 743T438 691T511 637T628 569Z" />
<glyph unicode="&#xa8;" glyph-name="dieresis" horiz-adv-x="1035" d="M150 1389Q150 1420 158 1447T181 1495T215 1528T256 1540Q287 1540 314 1532T362 1508T393 1474T405 1432Q405 1402 397 1375T374 1327T341 1294T300 1282Q268 1282 241 1290T194 1314T162
1348T150 1389ZM630 1389Q630 1420 638 1447T661 1495T694 1528T735 1540Q766 1540 793 1532T841 1508T873 1474T885 1432Q885 1402 877 1375T854 1327T820 1294T778 1282Q746 1282 719 1290T673 1314T642 1348T630 1389Z" />
<glyph unicode="&#xa9;" glyph-name="copyright" horiz-adv-x="1347" d="M359 953Q359 1123 447 1214T697 1305Q743 1305 779 1299T841 1286Q871 1277 893 1267L905 1064L807 1050L763 1187Q756 1190 746 1193Q738 1195 726 1197T696 1199Q674 1199 657 1196T627
1190Q613 1186 602 1181Q595 1157 590 1124Q585 1096 582 1057T579 968V915Q579 857 589 817T617 751T659 714T711 702Q749 702 783 709T844 725Q875 735 901 748V654Q873 637 839 624Q810 613 770 604T679 595Q611 595 553 615T451 674T384 766T359 890V953ZM237
949Q237 858 271 779T364 640T503 546T674 512Q764 512 843 546T982 639T1076 778T1110 949Q1110 1039 1076 1118T983 1257T844 1351T674 1385Q583 1385 504 1351T365 1258T271 1119T237 949ZM60 949Q60 1076 108 1188T240 1383T435 1514T674 1562Q801 1562 913
1514T1108 1383T1239 1188T1287 949Q1287 822 1239 710T1108 515T913 384T674 335Q589 335 511 357T364 419T240 515T144 639T82 785T60 949Z" />
<glyph unicode="&#xaa;" glyph-name="ordfeminine" horiz-adv-x="633" d="M525 917L617 900L607 821L389 810L363 883Q355 874 340 862T303 838T251 818T184 810Q106 810 58 843T10 940Q10 1040 91 1092T350 1144V1172Q350 1195 345 1215T329 1251T299 1276T253
1285Q238 1285 225 1284T200 1281Q188 1279 178 1277L148 1161L49 1166V1348Q77 1355 111 1361Q140 1366 180 1370T270 1375Q328 1375 375 1365T456 1333T507 1276T525 1189V917ZM350 1054Q309 1054 281 1050T233 1040Q211 1034 196 1026Q193 1019 190 1010Q185
993 185 968Q185 931 199 916T239 900Q260 900 279 910T315 932Q333 946 350 964V1054Z" />
<glyph unicode="&#xab;" glyph-name="guillemotleft" horiz-adv-x="1103" d="M445 115L50 536V596L445 1017H640V995L340 576V556L640 137V115H445ZM798 159L532 548V584L798 973H993V951L826 566L993 181V159H798Z" />
<glyph unicode="&#xac;" glyph-name="logicalnot" horiz-adv-x="1243" d="M160 797H1083V305H886V610H160V797Z" />
<glyph unicode="&#xad;" glyph-name="uni00AD" horiz-adv-x="959" d="M190 685L819 726L789 537L160 496L190 685Z" />
<glyph unicode="&#xae;" glyph-name="registered" horiz-adv-x="1347" d="M60 949Q60 1076 108 1188T240 1383T435 1514T674 1562Q801 1562 913 1514T1108 1383T1239 1188T1287 949Q1287 822 1239 710T1108 515T913 384T674 335Q589 335 511 357T364 419T240 515T144
639T82 785T60 949ZM237 949Q237 858 271 779T364 640T503 546T674 512Q764 512 843 546T982 639T1076 778T1110 949Q1110 1039 1076 1118T983 1257T844 1351T674 1385Q583 1385 504 1351T365 1258T271 1119T237 949ZM434 1179L364 1196L373 1261H694Q810 1261
871 1219T933 1083Q933 1017 909 978T849 912V906L925 711L985 700L976 635H780L685 896H626V715L696 700L687 635H373L364 700L434 715V1179ZM626 1167V990H652Q686 990 706 993Q717 995 725 997Q728 1009 732 1023Q734 1035 736 1050T739 1082Q739 1118 717 1142T642
1167H626Z" />
<glyph unicode="&#xaf;" glyph-name="overscore" horiz-adv-x="1050" d="M150 1493H900L880 1333H130L150 1493Z" />
<glyph unicode="&#xb0;" glyph-name="degree" horiz-adv-x="654" d="M80 1305Q80 1358 101 1405T158 1487T242 1542T347 1562Q402 1562 451 1542T536 1487T593 1405T614 1305Q614 1252 593 1205T536 1123T451 1068T347 1048Q291 1048 243 1068T158 1123T101 1205T80
1305ZM235 1305Q235 1247 267 1217T347 1187Q395 1187 427 1217T459 1305Q459 1363 427 1393T347 1423Q299 1423 267 1393T235 1305Z" />
<glyph unicode="&#xb1;" glyph-name="plusminus" horiz-adv-x="1103" d="M645 1105V787H943V600H645V282H458V600H160V787H458V1105H645ZM187 187H920V0H187V187Z" />
<glyph unicode="&#xb2;" glyph-name="twosuperior" horiz-adv-x="581" d="M355 1589Q355 1639 330 1658T268 1678Q248 1678 231 1675T199 1666Q183 1661 169 1654L141 1544L46 1549V1715Q77 1731 117 1743Q151 1754 197 1763T297 1772Q349 1772 393 1762T468 1730T517
1678T535 1603Q535 1558 513 1510T452 1412T365 1311T262 1205L264 1200H412L453 1306L545 1295L534 1085H28V1167Q98 1237 158 1297T262 1410T330 1506T355 1589Z" />
<glyph unicode="&#xb3;" glyph-name="threesuperior" horiz-adv-x="548" d="M239 1073Q199 1073 161 1079T92 1093Q56 1102 24 1114V1289L117 1295L143 1189Q157 1182 174 1178Q188 1174 206 1171T245 1168Q287 1168 317 1194T347 1273Q347 1306 339 1329T316
1367T281 1387T238 1394H184V1488H240Q282 1488 302 1514T323 1591Q323 1637 300 1657T241 1677Q224 1677 209 1675T182 1669Q168 1665 156 1661L130 1555L37 1561V1735Q69 1745 106 1753Q138 1760 178 1766T264 1772Q382 1772 442 1730T503 1610Q503 1574 492
1548T463 1502T425 1469T387 1447Q413 1439 438 1426T482 1393T514 1347T526 1287Q526 1233 505 1193T446 1126T355 1086T239 1073Z" />
<glyph unicode="&#xb4;" glyph-name="acute" horiz-adv-x="855" d="M200 1307L383 1670L655 1660V1594L355 1265L200 1275V1307Z" />
<glyph unicode="&#xb5;" glyph-name="uni00B5" horiz-adv-x="1368" d="M1155 152L1318 118L1298 0Q1272 -7 1242 -11Q1216 -16 1183 -19T1114 -22Q1061 -22 1023 -8T957 30T913 81T885 136Q865 110 838 82T775 31T695 -7T595 -22Q561 -22 534 -15T488 4T455 27T434
47L424 41L473 -435L183 -457V933L20 967L40 1085L473 1107V403Q473 320 486 265T522 178T576 132T645 118Q695 118 735 137T805 181Q838 209 865 245V933L672 967L692 1085L1155 1107V152Z" />
<glyph unicode="&#xb6;" glyph-name="paragraph" horiz-adv-x="1262" d="M575 485Q482 485 395 509T240 584T131 715T90 908Q90 1020 127 1104T230 1243T388 1325T588 1353H1222L1242 1235L1080 1201V128Q1080 24 1045 -56T950 -191T807 -274T632 -302Q567 -302
514 -295T422 -279Q377 -268 341 -255V-123Q371 -132 406 -139Q436 -145 476 -149T565 -154Q618 -154 658 -139T726 -90T766 -2T780 133V1204H640V485H575Z" />
<glyph unicode="&#xb7;" glyph-name="middot" horiz-adv-x="572" d="M140 648Q140 685 148 718T172 776T206 817T248 832Q287 832 320 824T379 800T418 765T432 722Q432 686 424 653T400 594T365 553T323 538Q284 538 251 546T193 570T154 605T140 648Z" />
<glyph unicode="&#xb8;" glyph-name="cedilla" horiz-adv-x="858" d="M505 37L453 -95Q500 -104 538 -118T602 -153T643 -204T658 -275Q658 -315 641 -348T591 -406T512 -443T410 -457Q364 -457 326 -450T260 -434Q227 -423 200 -410V-297Q228 -308 259 -317Q285
-325 317 -331T381 -337Q418 -337 439 -334Q450 -332 460 -330Q461 -323 463 -315Q465 -308 466 -301T467 -285Q467 -268 460 -255T436 -231T391 -212T320 -196L274 -124L333 37H505Z" />
<glyph unicode="&#xb9;" glyph-name="onesuperior" horiz-adv-x="446" d="M41 1164L143 1181V1648H30L25 1705L207 1762H323V1181L424 1164L414 1085H51L41 1164Z" />
<glyph unicode="&#xba;" glyph-name="ordmasculine" horiz-adv-x="587" d="M286 810Q216 810 165 825T79 870T27 940T10 1031V1077Q10 1150 31 1205T89 1298T178 1355T291 1375Q353 1375 404 1362T493 1321T550 1250T571 1149V1102Q571 1041 554 988T501 895T412
833T286 810ZM396 1132Q396 1176 386 1205T360 1252T323 1277T281 1285Q267 1285 254 1282T229 1275Q216 1271 205 1265Q199 1246 195 1222Q191 1201 188 1172T185 1107V1048Q185 1009 195 981T221 935T258 909T301 900Q314 900 327 903T351 910Q363 914 376 920Q382
937 386 960Q390 980 393 1008T396 1073V1132Z" />
<glyph unicode="&#xbb;" glyph-name="guillemotright" horiz-adv-x="1103" d="M463 115V137L763 556V576L463 995V1017H658L1053 596V536L658 115H463ZM110 159V181L277 566L110 951V973H305L571 584V548L305 159H110Z" />
<glyph unicode="&#xbc;" glyph-name="onequarter" horiz-adv-x="1339" d="M56 755L158 772V1239H45L40 1296L222 1353H338V772L439 755L429 676H66L56 755ZM1078 1353H1223V1333L244 0H99V20L1078 1353ZM895 79L1011 96V171H747L735 244L1015 677H1172L897 266H1011V374H1191V266H1277L1289
186L1191 169V96L1287 79L1277 0H905L895 79Z" />
<glyph unicode="&#xbd;" glyph-name="onehalf" horiz-adv-x="1339" d="M56 755L158 772V1239H45L40 1296L222 1353H338V772L439 755L429 676H66L56 755ZM1078 1353H1223V1333L244 0H99V20L1078 1353ZM1148 504Q1148 554 1123 573T1061 593Q1041 593 1024 590T992
581Q976 576 962 569L934 459L839 464V630Q870 646 910 658Q944 669 990 678T1090 687Q1142 687 1186 677T1261 645T1310 593T1328 518Q1328 473 1306 425T1245 327T1158 226T1055 120L1057 115H1205L1246 221L1338 210L1327 0H821V82Q891 152 951 212T1055 325T1123
421T1148 504Z" />
<glyph unicode="&#xbe;" glyph-name="threequarters" horiz-adv-x="1339" d="M231 676Q191 676 153 682T84 696Q48 705 16 717V892L109 898L135 792Q149 785 166 781Q180 777 198 774T237 771Q279 771 309 797T339 876Q339 909 331 932T308 970T273 990T230 997H176V1091H232Q274
1091 294 1117T315 1194Q315 1240 292 1260T233 1280Q216 1280 201 1278T174 1272Q160 1268 148 1264L122 1158L29 1164V1338Q61 1348 98 1356Q130 1363 170 1369T256 1375Q374 1375 434 1333T495 1213Q495 1177 484 1151T455 1105T417 1072T379 1050Q405 1042
430 1029T474 996T506 950T518 890Q518 836 497 796T438 729T347 689T231 676ZM1078 1353H1223V1333L244 0H99V20L1078 1353ZM895 79L1011 96V171H747L735 244L1015 677H1172L897 266H1011V374H1191V266H1277L1289 186L1191 169V96L1287 79L1277 0H905L895 79Z"
/>
<glyph unicode="&#xbf;" glyph-name="questiondown" horiz-adv-x="1029" d="M489 375Q529 411 543 439T558 500Q558 534 539 551T485 569Q465 569 443 564T401 553Q379 546 357 538V659Q384 673 419 684Q449 693 492 701T589 709Q647 709 694 697T776 660T829
598T848 510Q848 469 837 433T801 360T740 283T652 196L470 28Q434 -5 411 -31T373 -82T352 -130T346 -183Q346 -210 357 -234T391 -277T450 -306T535 -317Q580 -317 612 -312T668 -301Q694 -294 713 -285L783 -60L935 -77V-374Q881 -398 814 -416Q757 -432 678
-444T503 -457Q399 -457 317 -439T176 -387T87 -304T56 -191Q56 -130 70 -83T117 11T201 109T328 229L489 375ZM766 986Q766 945 757 908T731 842T692 797T645 780Q602 780 565 790T500 816T456 855T440 903Q440 943 449 980T475 1045T514 1090T562 1107Q605 1107
642 1098T706 1072T750 1033T766 986Z" />
<glyph unicode="&#xc0;" glyph-name="Agrave" horiz-adv-x="1266" d="M-26 118L74 146L507 1353H770L1193 146L1292 118L1272 0H778L758 118L890 146L808 386H355L271 146L403 118L383 0H-6L-26 118ZM406 535H758L592 1023H576L406 535ZM797 1471L632 1460L237
1708V1774L519 1784L797 1503V1471Z" />
<glyph unicode="&#xc1;" glyph-name="Aacute" horiz-adv-x="1266" d="M-26 118L74 146L507 1353H770L1193 146L1292 118L1272 0H778L758 118L890 146L808 386H355L271 146L403 118L383 0H-6L-26 118ZM406 535H758L592 1023H576L406 535ZM480 1503L758 1784L1040
1774V1708L645 1460L480 1471V1503Z" />
<glyph unicode="&#xc2;" glyph-name="Acircumflex" horiz-adv-x="1266" d="M-26 118L74 146L507 1353H770L1193 146L1292 118L1272 0H778L758 118L890 146L808 386H355L271 146L403 118L383 0H-6L-26 118ZM406 535H758L592 1023H576L406 535ZM1016 1470L841 1460L628
1631L422 1460L277 1470V1502L540 1794L763 1784L1016 1502V1470Z" />
<glyph unicode="&#xc3;" glyph-name="Atilde" horiz-adv-x="1266" d="M-26 118L74 146L507 1353H770L1193 146L1292 118L1272 0H778L758 118L890 146L808 386H355L271 146L403 118L383 0H-6L-26 118ZM406 535H758L592 1023H576L406 535ZM167 1523Q167 1650 234
1713T417 1777Q483 1777 550 1757T678 1711T791 1666T878 1645Q921 1645 946 1674T971 1765L1108 1775V1703Q1108 1584 1047 1517T870 1449Q812 1449 743 1469T608 1515T484 1560T393 1581Q370 1581 353 1577T322 1562T303 1532T296 1483L167 1473V1523Z" />
<glyph unicode="&#xc4;" glyph-name="Adieresis" horiz-adv-x="1266" d="M-26 118L74 146L507 1353H770L1193 146L1292 118L1272 0H778L758 118L890 146L808 386H355L271 146L403 118L383 0H-6L-26 118ZM406 535H758L592 1023H576L406 535ZM243 1577Q243 1608
251 1635T274 1683T308 1716T349 1728Q380 1728 407 1720T455 1697T486 1662T498 1620Q498 1590 490 1563T467 1515T434 1482T393 1470Q361 1470 334 1478T287 1502T255 1536T243 1577ZM785 1577Q785 1608 793 1635T816 1683T849 1716T890 1728Q921 1728 948 1720T996
1697T1028 1662T1040 1620Q1040 1590 1032 1563T1009 1515T975 1482T933 1470Q901 1470 874 1478T828 1502T797 1536T785 1577Z" />
<glyph unicode="&#xc5;" glyph-name="Aring" horiz-adv-x="1266" d="M-26 118L74 146L507 1353H770L1193 146L1292 118L1272 0H778L758 118L890 146L808 386H355L271 146L403 118L383 0H-6L-26 118ZM406 535H758L592 1023H576L406 535ZM415 1570Q415 1628 434
1671T486 1742T562 1785T654 1799Q698 1799 737 1790T807 1760T854 1709T872 1634Q872 1573 854 1530T803 1458T728 1417T634 1404Q588 1404 548 1413T479 1443T432 1495T415 1570ZM570 1602Q570 1551 592 1524T649 1497Q663 1497 673 1498T692 1501Q701 1503 709
1506Q711 1517 713 1532Q715 1545 716 1562T718 1602Q718 1653 696 1680T639 1707Q628 1707 619 1706T603 1702Q595 1700 589 1698Q583 1687 579 1673Q575 1661 573 1643T570 1602Z" />
<glyph unicode="&#xc6;" glyph-name="AE" horiz-adv-x="1784" d="M-34 118L91 149L736 1353H1658L1682 1033L1559 1011L1476 1204H1094V782H1381L1415 914L1534 894V520L1415 500L1381 633H1094V149H1505L1588 342L1712 319L1688 0H651L631 118L794 152V386H412L285
143L402 118L382 0H-14L-34 118ZM794 535V1114L490 535H794Z" />
<glyph unicode="&#xc7;" glyph-name="Ccedilla" horiz-adv-x="1186" d="M70 604Q70 983 237 1179T735 1375Q826 1375 921 1360T1098 1316L1119 1026L964 1004L879 1203Q847 1214 801 1220T708 1226Q633 1226 558 1204T429 1148Q404 1056 387 934T370 683V550Q370
342 468 235T761 127Q846 127 941 155T1122 231V105Q1033 47 915 12Q827 -13 736 -20L707 -95Q754 -104 792 -118T856 -153T897 -204T912 -275Q912 -315 895 -348T845 -406T766 -443T664 -457Q618 -457 580 -450T514 -434Q481 -423 454 -410V-297Q482 -308 513
-317Q539 -325 571 -331T635 -337Q672 -337 693 -334Q704 -332 714 -330Q715 -323 717 -315Q719 -308 720 -301T721 -285Q721 -268 714 -255T690 -231T645 -212T574 -196L528 -124L567 -17Q347 4 223 115Q70 252 70 515V604Z" />
<glyph unicode="&#xc8;" glyph-name="Egrave" horiz-adv-x="1203" d="M513 633V149H914L997 342L1131 319L1107 0H90L70 118L213 152V1201L70 1235L90 1353H1077L1101 1033L968 1011L885 1204H513V782H800L834 894L953 874V540L834 520L800 633H513ZM752 1471L587
1460L192 1708V1774L474 1784L752 1503V1471Z" />
<glyph unicode="&#xc9;" glyph-name="Eacute" horiz-adv-x="1203" d="M513 633V149H914L997 342L1131 319L1107 0H90L70 118L213 152V1201L70 1235L90 1353H1077L1101 1033L968 1011L885 1204H513V782H800L834 894L953 874V540L834 520L800 633H513ZM435 1503L713
1784L995 1774V1708L600 1460L435 1471V1503Z" />
<glyph unicode="&#xca;" glyph-name="Ecircumflex" horiz-adv-x="1203" d="M513 633V149H914L997 342L1131 319L1107 0H90L70 118L213 152V1201L70 1235L90 1353H1077L1101 1033L968 1011L885 1204H513V782H800L834 894L953 874V540L834 520L800 633H513ZM971
1470L796 1460L583 1631L377 1460L232 1470V1502L495 1794L718 1784L971 1502V1470Z" />
<glyph unicode="&#xcb;" glyph-name="Edieresis" horiz-adv-x="1203" d="M513 633V149H914L997 342L1131 319L1107 0H90L70 118L213 152V1201L70 1235L90 1353H1077L1101 1033L968 1011L885 1204H513V782H800L834 894L953 874V540L834 520L800 633H513ZM198 1577Q198
1608 206 1635T229 1683T263 1716T304 1728Q335 1728 362 1720T410 1697T441 1662T453 1620Q453 1590 445 1563T422 1515T389 1482T348 1470Q316 1470 289 1478T242 1502T210 1536T198 1577ZM740 1577Q740 1608 748 1635T771 1683T804 1716T845 1728Q876 1728 903
1720T951 1697T983 1662T995 1620Q995 1590 987 1563T964 1515T930 1482T888 1470Q856 1470 829 1478T783 1502T752 1536T740 1577Z" />
<glyph unicode="&#xcc;" glyph-name="Igrave" horiz-adv-x="717" d="M211 1201L68 1235L88 1353H633L653 1235L511 1201V152L653 118L633 0H88L68 118L211 152V1201ZM770 1471L605 1460L210 1708V1774L492 1784L770 1503V1471Z" />
<glyph unicode="&#xcd;" glyph-name="Iacute" horiz-adv-x="717" d="M211 1201L68 1235L88 1353H633L653 1235L511 1201V152L653 118L633 0H88L68 118L211 152V1201ZM196 1503L474 1784L756 1774V1708L361 1460L196 1471V1503Z" />
<glyph unicode="&#xce;" glyph-name="Icircumflex" horiz-adv-x="717" d="M211 1201L68 1235L88 1353H633L653 1235L511 1201V152L653 118L633 0H88L68 118L211 152V1201ZM732 1470L557 1460L344 1631L138 1460L-7 1470V1502L256 1794L479 1784L732 1502V1470Z" />
<glyph unicode="&#xcf;" glyph-name="Idieresis" horiz-adv-x="717" d="M211 1201L68 1235L88 1353H633L653 1235L511 1201V152L653 118L633 0H88L68 118L211 152V1201ZM-41 1577Q-41 1608 -33 1635T-10 1683T24 1716T65 1728Q96 1728 123 1720T171 1697T202 1662T214
1620Q214 1590 206 1563T183 1515T150 1482T109 1470Q77 1470 50 1478T3 1502T-29 1536T-41 1577ZM501 1577Q501 1608 509 1635T532 1683T565 1716T606 1728Q637 1728 664 1720T712 1697T744 1662T756 1620Q756 1590 748 1563T725 1515T691 1482T649 1470Q617 1470
590 1478T544 1502T513 1536T501 1577Z" />
<glyph unicode="&#xd0;" glyph-name="Eth" horiz-adv-x="1428" d="M50 778H213V1201L70 1235L90 1353H708Q1025 1353 1186 1202T1348 765V687Q1348 370 1178 185T718 0H90L70 118L213 152V609H50V778ZM513 1204V778H753V609H513V149H674Q733 149 797 157T912 178Q964
250 1006 372T1048 622V716Q1048 964 948 1084T641 1204H513Z" />
<glyph unicode="&#xd1;" glyph-name="Ntilde" horiz-adv-x="1579" d="M211 1201L68 1235L88 1353H608L1200 252H1216V1201L1072 1235L1092 1353H1539L1559 1235L1417 1201V0H1018L427 1100H411V152L573 118L553 0H88L68 118L211 152V1201ZM356 1523Q356 1650 423
1713T606 1777Q672 1777 739 1757T867 1711T980 1666T1067 1645Q1110 1645 1135 1674T1160 1765L1297 1775V1703Q1297 1584 1236 1517T1059 1449Q1001 1449 932 1469T797 1515T673 1560T582 1581Q559 1581 542 1577T511 1562T492 1532T485 1483L356 1473V1523Z"
/>
<glyph unicode="&#xd2;" glyph-name="Ograve" horiz-adv-x="1407" d="M695 -22Q392 -22 239 115T86 525V604Q86 998 252 1186T734 1375Q1036 1375 1191 1238T1347 827V749Q1347 364 1184 171T695 -22ZM1047 783Q1047 1000 959 1113T697 1226Q622 1226 555 1206T445
1158Q427 1094 407 965T386 703V570Q386 361 483 244T737 127Q817 127 886 149T989 196Q1010 271 1028 399T1047 650V783ZM864 1471L699 1460L304 1708V1774L586 1784L864 1503V1471Z" />
<glyph unicode="&#xd3;" glyph-name="Oacute" horiz-adv-x="1407" d="M695 -22Q392 -22 239 115T86 525V604Q86 998 252 1186T734 1375Q1036 1375 1191 1238T1347 827V749Q1347 364 1184 171T695 -22ZM1047 783Q1047 1000 959 1113T697 1226Q622 1226 555 1206T445
1158Q427 1094 407 965T386 703V570Q386 361 483 244T737 127Q817 127 886 149T989 196Q1010 271 1028 399T1047 650V783ZM547 1503L825 1784L1107 1774V1708L712 1460L547 1471V1503Z" />
<glyph unicode="&#xd4;" glyph-name="Ocircumflex" horiz-adv-x="1407" d="M695 -22Q392 -22 239 115T86 525V604Q86 998 252 1186T734 1375Q1036 1375 1191 1238T1347 827V749Q1347 364 1184 171T695 -22ZM1047 783Q1047 1000 959 1113T697 1226Q622 1226 555
1206T445 1158Q427 1094 407 965T386 703V570Q386 361 483 244T737 127Q817 127 886 149T989 196Q1010 271 1028 399T1047 650V783ZM1083 1470L908 1460L695 1631L489 1460L344 1470V1502L607 1794L830 1784L1083 1502V1470Z" />
<glyph unicode="&#xd5;" glyph-name="Otilde" horiz-adv-x="1407" d="M695 -22Q392 -22 239 115T86 525V604Q86 998 252 1186T734 1375Q1036 1375 1191 1238T1347 827V749Q1347 364 1184 171T695 -22ZM1047 783Q1047 1000 959 1113T697 1226Q622 1226 555 1206T445
1158Q427 1094 407 965T386 703V570Q386 361 483 244T737 127Q817 127 886 149T989 196Q1010 271 1028 399T1047 650V783ZM234 1523Q234 1650 301 1713T484 1777Q550 1777 617 1757T745 1711T858 1666T945 1645Q988 1645 1013 1674T1038 1765L1175 1775V1703Q1175
1584 1114 1517T937 1449Q879 1449 810 1469T675 1515T551 1560T460 1581Q437 1581 420 1577T389 1562T370 1532T363 1483L234 1473V1523Z" />
<glyph unicode="&#xd6;" glyph-name="Odieresis" horiz-adv-x="1407" d="M695 -22Q392 -22 239 115T86 525V604Q86 998 252 1186T734 1375Q1036 1375 1191 1238T1347 827V749Q1347 364 1184 171T695 -22ZM1047 783Q1047 1000 959 1113T697 1226Q622 1226 555 1206T445
1158Q427 1094 407 965T386 703V570Q386 361 483 244T737 127Q817 127 886 149T989 196Q1010 271 1028 399T1047 650V783ZM310 1577Q310 1608 318 1635T341 1683T375 1716T416 1728Q447 1728 474 1720T522 1697T553 1662T565 1620Q565 1590 557 1563T534 1515T501
1482T460 1470Q428 1470 401 1478T354 1502T322 1536T310 1577ZM852 1577Q852 1608 860 1635T883 1683T916 1716T957 1728Q988 1728 1015 1720T1063 1697T1095 1662T1107 1620Q1107 1590 1099 1563T1076 1515T1042 1482T1000 1470Q968 1470 941 1478T895 1502T864
1536T852 1577Z" />
<glyph unicode="&#xd7;" glyph-name="multiply" horiz-adv-x="1109" d="M314 978L554 737L795 978L939 834L698 593L939 353L795 209L554 449L314 209L170 353L410 593L170 834L314 978Z" />
<glyph unicode="&#xd8;" glyph-name="Oslash" horiz-adv-x="1407" d="M695 -22Q648 -22 606 -19L540 -230H345V-210L416 17Q251 71 169 197T86 525V604Q86 792 125 936T244 1177T446 1325T734 1375Q762 1375 788 1374T840 1370L893 1540H1088V1520L1029 1331Q1187
1275 1267 1150T1347 827V749Q1347 560 1308 416T1188 175T984 28T695 -22ZM697 1226Q637 1226 591 1216T512 1192Q474 1177 445 1158Q428 1096 415 1024Q404 961 395 879T386 703V570Q386 458 413 376T486 240L791 1216Q768 1221 745 1223T697 1226ZM1047 783Q1047
898 1024 978T960 1111L654 136Q694 127 737 127Q796 127 842 137T921 161Q959 176 989 196Q1005 259 1018 332Q1029 395 1038 476T1047 650V783Z" />
<glyph unicode="&#xd9;" glyph-name="Ugrave" horiz-adv-x="1400" d="M444 546Q444 338 523 233T747 127Q820 127 884 143T985 183Q1018 245 1040 334T1063 521V1201L920 1235L940 1353H1376L1396 1235L1254 1201V544Q1254 258 1118 118T698 -22Q411 -22 278 107T144
491V1201L0 1235L20 1353H566L586 1235L444 1201V546ZM911 1471L746 1460L351 1708V1774L633 1784L911 1503V1471Z" />
<glyph unicode="&#xda;" glyph-name="Uacute" horiz-adv-x="1400" d="M444 546Q444 338 523 233T747 127Q820 127 884 143T985 183Q1018 245 1040 334T1063 521V1201L920 1235L940 1353H1376L1396 1235L1254 1201V544Q1254 258 1118 118T698 -22Q411 -22 278 107T144
491V1201L0 1235L20 1353H566L586 1235L444 1201V546ZM594 1503L872 1784L1154 1774V1708L759 1460L594 1471V1503Z" />
<glyph unicode="&#xdb;" glyph-name="Ucircumflex" horiz-adv-x="1400" d="M444 546Q444 338 523 233T747 127Q820 127 884 143T985 183Q1018 245 1040 334T1063 521V1201L920 1235L940 1353H1376L1396 1235L1254 1201V544Q1254 258 1118 118T698 -22Q411 -22
278 107T144 491V1201L0 1235L20 1353H566L586 1235L444 1201V546ZM1130 1470L955 1460L742 1631L536 1460L391 1470V1502L654 1794L877 1784L1130 1502V1470Z" />
<glyph unicode="&#xdc;" glyph-name="Udieresis" horiz-adv-x="1400" d="M444 546Q444 338 523 233T747 127Q820 127 884 143T985 183Q1018 245 1040 334T1063 521V1201L920 1235L940 1353H1376L1396 1235L1254 1201V544Q1254 258 1118 118T698 -22Q411 -22 278
107T144 491V1201L0 1235L20 1353H566L586 1235L444 1201V546ZM357 1577Q357 1608 365 1635T388 1683T422 1716T463 1728Q494 1728 521 1720T569 1697T600 1662T612 1620Q612 1590 604 1563T581 1515T548 1482T507 1470Q475 1470 448 1478T401 1502T369 1536T357
1577ZM899 1577Q899 1608 907 1635T930 1683T963 1716T1004 1728Q1035 1728 1062 1720T1110 1697T1142 1662T1154 1620Q1154 1590 1146 1563T1123 1515T1089 1482T1047 1470Q1015 1470 988 1478T942 1502T911 1536T899 1577Z" />
<glyph unicode="&#xdd;" glyph-name="Yacute" horiz-adv-x="1172" d="M452 586L63 1203L-54 1234L-34 1353H486L506 1234L364 1207L641 763L905 1207L770 1234L790 1353H1212L1232 1234L1119 1203L752 587V152L894 118L874 0H329L309 118L452 152V586ZM478 1503L756
1784L1038 1774V1708L643 1460L478 1471V1503Z" />
<glyph unicode="&#xde;" glyph-name="Thorn" horiz-adv-x="1098" d="M170 1201L7 1235L27 1353H612L632 1235L470 1201V1085H587Q702 1085 793 1065T949 1002T1046 894T1080 740Q1080 639 1042 561T938 430T788 350T608 323H470V152L692 118L672 0H27L7 118L170
152V1201ZM470 936V472H545Q590 472 627 476T691 486Q723 492 748 500Q756 529 762 562Q767 590 771 626T776 700Q776 752 763 795T718 870T637 918T515 936H470Z" />
<glyph unicode="&#xdf;" glyph-name="germandbls" horiz-adv-x="1289" d="M189 933L16 967L36 1085H189V1149Q189 1244 219 1320T310 1450T466 1533T689 1562Q777 1562 856 1545T994 1490T1089 1391T1124 1240Q1124 1173 1103 1115T1047 1008T965 916T868 840Q895
825 927 807Q953 791 987 769T1056 719Q1110 675 1152 632T1224 541T1269 440T1284 322Q1284 240 1253 176T1166 68T1033 1T863 -22Q792 -22 736 -12T641 13Q595 28 560 48V299L711 309L757 141Q768 134 784 129Q797 124 816 121T860 118Q883 118 901 120T932 127Q947
131 959 137Q968 153 976 172Q983 189 988 211T994 259Q994 298 989 332T967 401T921 473T842 556Q806 589 769 615T700 662Q664 684 631 702V818Q682 868 720 916T783 1012T821 1110T834 1215Q834 1323 789 1372T659 1422Q620 1422 593 1417T548 1407Q528 1401
515 1393Q505 1363 497 1323Q490 1289 485 1242T479 1135V0H46L26 118L189 152V933Z" />
<glyph unicode="&#xe0;" glyph-name="agrave" horiz-adv-x="1188" d="M1001 152L1144 118L1124 0L789 -22L732 136Q670 65 577 22T376 -22Q228 -22 149 44T70 237Q70 427 231 522T711 617V710Q711 842 666 904T518 967Q476 967 440 963T376 952L316 740L148 750V1053Q233
1077 339 1092T546 1107Q778 1107 889 1015T1001 735V152ZM711 477Q611 477 525 461T390 419Q378 394 369 357T360 275Q360 199 391 159T480 118Q543 118 606 156T711 245V477ZM941 1275L773 1265L453 1594V1660L738 1670L941 1307V1275Z" />
<glyph unicode="&#xe1;" glyph-name="aacute" horiz-adv-x="1188" d="M1001 152L1144 118L1124 0L789 -22L732 136Q670 65 577 22T376 -22Q228 -22 149 44T70 237Q70 427 231 522T711 617V710Q711 842 666 904T518 967Q476 967 440 963T376 952L316 740L148 750V1053Q233
1077 339 1092T546 1107Q778 1107 889 1015T1001 735V152ZM711 477Q611 477 525 461T390 419Q378 394 369 357T360 275Q360 199 391 159T480 118Q543 118 606 156T711 245V477ZM440 1307L623 1670L895 1660V1594L595 1265L440 1275V1307Z" />
<glyph unicode="&#xe2;" glyph-name="acircumflex" horiz-adv-x="1188" d="M1001 152L1144 118L1124 0L789 -22L732 136Q670 65 577 22T376 -22Q228 -22 149 44T70 237Q70 427 231 522T711 617V710Q711 842 666 904T518 967Q476 967 440 963T376 952L316 740L148
750V1053Q233 1077 339 1092T546 1107Q778 1107 889 1015T1001 735V152ZM711 477Q611 477 525 461T390 419Q378 394 369 357T360 275Q360 199 391 159T480 118Q543 118 606 156T711 245V477ZM906 1275L731 1265L543 1484L362 1265L217 1275V1307L440 1680L683 1670L906
1307V1275Z" />
<glyph unicode="&#xe3;" glyph-name="atilde" horiz-adv-x="1188" d="M1001 152L1144 118L1124 0L789 -22L732 136Q670 65 577 22T376 -22Q228 -22 149 44T70 237Q70 427 231 522T711 617V710Q711 842 666 904T518 967Q476 967 440 963T376 952L316 740L148 750V1053Q233
1077 339 1092T546 1107Q778 1107 889 1015T1001 735V152ZM711 477Q611 477 525 461T390 419Q378 394 369 357T360 275Q360 199 391 159T480 118Q543 118 606 156T711 245V477ZM390 1307Q390 1434 451 1497T620 1561Q677 1561 735 1541T847 1495T945 1450T1021
1429Q1055 1429 1074 1458T1094 1549L1231 1559V1487Q1231 1368 1175 1301T1013 1233Q962 1233 902 1253T783 1299T675 1344T596 1365Q560 1365 540 1346T519 1267L390 1257V1307Z" />
<glyph unicode="&#xe4;" glyph-name="adieresis" horiz-adv-x="1188" d="M1001 152L1144 118L1124 0L789 -22L732 136Q670 65 577 22T376 -22Q228 -22 149 44T70 237Q70 427 231 522T711 617V710Q711 842 666 904T518 967Q476 967 440 963T376 952L316 740L148
750V1053Q233 1077 339 1092T546 1107Q778 1107 889 1015T1001 735V152ZM711 477Q611 477 525 461T390 419Q378 394 369 357T360 275Q360 199 391 159T480 118Q543 118 606 156T711 245V477ZM181 1389Q181 1420 189 1447T212 1495T246 1528T287 1540Q318 1540 345
1532T393 1508T424 1474T436 1432Q436 1402 428 1375T405 1327T372 1294T331 1282Q299 1282 272 1290T225 1314T193 1348T181 1389ZM661 1389Q661 1420 669 1447T692 1495T725 1528T766 1540Q797 1540 824 1532T872 1508T904 1474T916 1432Q916 1402 908 1375T885
1327T851 1294T809 1282Q777 1282 750 1290T704 1314T673 1348T661 1389Z" />
<glyph unicode="&#xe5;" glyph-name="aring" horiz-adv-x="1188" d="M1001 152L1144 118L1124 0L789 -22L732 136Q670 65 577 22T376 -22Q228 -22 149 44T70 237Q70 427 231 522T711 617V710Q711 842 666 904T518 967Q476 967 440 963T376 952L316 740L148 750V1053Q233
1077 339 1092T546 1107Q778 1107 889 1015T1001 735V152ZM711 477Q611 477 525 461T390 419Q378 394 369 357T360 275Q360 199 391 159T480 118Q543 118 606 156T711 245V477ZM333 1436Q333 1497 352 1542T404 1616T480 1660T572 1675Q616 1675 655 1665T725 1634T772
1580T790 1500Q790 1436 772 1391T721 1316T646 1274T552 1260Q506 1260 466 1270T397 1301T350 1356T333 1436ZM488 1468Q488 1412 510 1383T567 1353Q581 1353 591 1354T610 1357Q619 1359 627 1362Q629 1374 631 1391Q633 1405 634 1424T636 1468Q636 1524 614
1553T557 1583Q546 1583 537 1582T521 1578Q513 1576 507 1574Q501 1563 497 1547Q493 1533 491 1514T488 1468Z" />
<glyph unicode="&#xe6;" glyph-name="ae" horiz-adv-x="1685" d="M1001 493V447Q1001 354 1024 291T1086 190T1176 135T1283 118Q1337 118 1390 128T1488 150Q1539 164 1586 183V67Q1536 41 1474 22Q1420 5 1347 -8T1184 -22Q1116 -22 1056 -12T943 21T848 77T776
159Q759 138 724 107T638 48T522 -1T381 -22Q228 -22 149 44T70 237Q70 327 106 399T219 522T418 600T711 627V702Q711 840 663 903T518 967Q487 967 461 965T416 959Q394 955 376 952L316 740L148 750V1053Q200 1068 263 1080Q317 1090 389 1098T546 1107Q664
1107 754 1083T904 1001Q970 1055 1051 1081T1228 1107Q1345 1107 1424 1077T1550 987T1618 835T1639 623V493H1001ZM730 263Q711 329 711 414V487Q625 487 565 478T465 458Q419 445 390 429Q381 412 375 388Q369 368 365 339T360 275Q360 233 370 203T396 154T434
127T480 118Q530 118 574 139T651 186T706 236T730 263ZM1051 927Q1040 892 1030 847Q1022 809 1014 755T1003 633H1349Q1349 720 1342 783T1316 887T1269 947T1198 967Q1162 967 1135 961T1088 947Q1066 938 1051 927Z" />
<glyph unicode="&#xe7;" glyph-name="ccedilla" horiz-adv-x="992" d="M62 492Q62 794 203 950T594 1107Q675 1107 762 1091T923 1044L942 790L772 767L699 957Q666 963 635 965T575 967Q528 967 482 956T402 927Q382 860 367 759T352 552V443Q352 283 425 201T639
118Q703 118 787 141T934 191V75Q858 31 756 4Q684 -14 610 -19L581 -95Q628 -104 666 -118T730 -153T771 -204T786 -275Q786 -315 769 -348T719 -406T640 -443T538 -457Q492 -457 454 -450T388 -434Q355 -423 328 -410V-297Q356 -308 387 -317Q413 -325 445 -331T509
-337Q546 -337 567 -334Q578 -332 588 -330Q589 -323 591 -315Q593 -308 594 -301T595 -285Q595 -268 588 -255T564 -231T519 -212T448 -196L402 -124L442 -15Q288 5 191 87Q62 196 62 399V492Z" />
<glyph unicode="&#xe8;" glyph-name="egrave" horiz-adv-x="1078" d="M354 513V447Q354 287 431 203T666 118Q734 118 824 138T979 183V67Q906 30 791 4T557 -22Q320 -22 192 90T64 414V497Q64 785 208 946T608 1107Q836 1107 934 999T1032 643V513H354ZM402 928Q386
870 374 796T357 653H742Q742 828 702 897T566 967Q524 967 482 957T402 928ZM731 1275L563 1265L243 1594V1660L528 1670L731 1307V1275Z" />
<glyph unicode="&#xe9;" glyph-name="eacute" horiz-adv-x="1078" d="M354 513V447Q354 287 431 203T666 118Q734 118 824 138T979 183V67Q906 30 791 4T557 -22Q320 -22 192 90T64 414V497Q64 785 208 946T608 1107Q836 1107 934 999T1032 643V513H354ZM402 928Q386
870 374 796T357 653H742Q742 828 702 897T566 967Q524 967 482 957T402 928ZM487 1307L670 1670L942 1660V1594L642 1265L487 1275V1307Z" />
<glyph unicode="&#xea;" glyph-name="ecircumflex" horiz-adv-x="1078" d="M354 513V447Q354 287 431 203T666 118Q734 118 824 138T979 183V67Q906 30 791 4T557 -22Q320 -22 192 90T64 414V497Q64 785 208 946T608 1107Q836 1107 934 999T1032 643V513H354ZM402
928Q386 870 374 796T357 653H742Q742 828 702 897T566 967Q524 967 482 957T402 928ZM953 1275L778 1265L590 1484L409 1265L264 1275V1307L487 1680L730 1670L953 1307V1275Z" />
<glyph unicode="&#xeb;" glyph-name="edieresis" horiz-adv-x="1078" d="M354 513V447Q354 287 431 203T666 118Q734 118 824 138T979 183V67Q906 30 791 4T557 -22Q320 -22 192 90T64 414V497Q64 785 208 946T608 1107Q836 1107 934 999T1032 643V513H354ZM402
928Q386 870 374 796T357 653H742Q742 828 702 897T566 967Q524 967 482 957T402 928ZM228 1389Q228 1420 236 1447T259 1495T293 1528T334 1540Q365 1540 392 1532T440 1508T471 1474T483 1432Q483 1402 475 1375T452 1327T419 1294T378 1282Q346 1282 319 1290T272
1314T240 1348T228 1389ZM708 1389Q708 1420 716 1447T739 1495T772 1528T813 1540Q844 1540 871 1532T919 1508T951 1474T963 1432Q963 1402 955 1375T932 1327T898 1294T856 1282Q824 1282 797 1290T751 1314T720 1348T708 1389Z" />
<glyph unicode="&#xec;" glyph-name="igrave" horiz-adv-x="696" d="M501 152L644 118L624 0H88L68 118L211 152V933L68 967L88 1085L501 1107V152ZM455 1275L287 1265L-33 1594V1660L252 1670L455 1307V1275Z" />
<glyph unicode="&#xed;" glyph-name="iacute" horiz-adv-x="696" d="M501 152L644 118L624 0H88L68 118L211 152V933L68 967L88 1085L501 1107V152ZM210 1307L393 1670L665 1660V1594L365 1265L210 1275V1307Z" />
<glyph unicode="&#xee;" glyph-name="icircumflex" horiz-adv-x="696" d="M501 152L644 118L624 0H88L68 118L211 152V933L68 967L88 1085L501 1107V152ZM677 1275L502 1265L314 1484L133 1265L-12 1275V1307L211 1680L454 1670L677 1307V1275Z" />
<glyph unicode="&#xef;" glyph-name="idieresis" horiz-adv-x="696" d="M501 152L644 118L624 0H88L68 118L211 152V933L68 967L88 1085L501 1107V152ZM-48 1389Q-48 1420 -40 1447T-17 1495T17 1528T58 1540Q89 1540 116 1532T164 1508T195 1474T207 1432Q207
1402 199 1375T176 1327T143 1294T102 1282Q70 1282 43 1290T-4 1314T-36 1348T-48 1389ZM432 1389Q432 1420 440 1447T463 1495T496 1528T537 1540Q568 1540 595 1532T643 1508T675 1474T687 1432Q687 1402 679 1375T656 1327T622 1294T580 1282Q548 1282 521
1290T475 1314T444 1348T432 1389Z" />
<glyph unicode="&#xf0;" glyph-name="eth" horiz-adv-x="1168" d="M311 1277L512 1372Q419 1451 309 1510L468 1562Q574 1516 670 1447L912 1562L969 1443L784 1355Q838 1305 885 1248T972 1126T1039 993T1084 849Q1088 832 1091 808T1098 757T1102 705T1104 656V562Q1104
439 1071 333T972 148T806 24T573 -22Q444 -22 349 9T189 98T94 237T62 419V512Q62 657 101 768T209 954T374 1068T580 1107Q625 1107 670 1096T751 1065Q731 1115 696 1168T613 1274L368 1157L311 1277ZM814 622Q814 724 791 791T732 897T651 951T563 967Q530
967 501 961T449 947Q423 938 402 927Q388 886 377 832Q367 786 360 720T352 572V453Q352 364 374 301T431 197T512 137T603 118Q634 118 663 124T715 138Q741 147 764 158Q778 196 789 247Q798 291 806 354T814 503V622Z" />
<glyph unicode="&#xf1;" glyph-name="ntilde" horiz-adv-x="1392" d="M68 118L211 152V933L68 967L88 1085L423 1107L481 949Q575 1036 665 1071T855 1107Q1025 1107 1114 1020T1203 766V152L1346 118L1326 0H790L770 118L913 152V751Q913 866 877 916T765 967Q712
967 644 930T501 818V152L644 118L624 0H88L68 118ZM299 1307Q299 1434 360 1497T529 1561Q586 1561 644 1541T756 1495T854 1450T930 1429Q964 1429 983 1458T1003 1549L1140 1559V1487Q1140 1368 1084 1301T922 1233Q871 1233 811 1253T692 1299T584 1344T505
1365Q469 1365 449 1346T428 1267L299 1257V1307Z" />
<glyph unicode="&#xf2;" glyph-name="ograve" horiz-adv-x="1168" d="M566 -22Q325 -22 194 94T62 419V512Q62 791 207 949T592 1107Q830 1107 967 992T1104 656V562Q1104 295 961 137T566 -22ZM814 622Q814 790 745 878T568 967Q520 967 477 956T402 927Q379
857 366 764T352 572V453Q352 293 423 206T597 118Q647 118 690 129T764 158Q786 215 800 305T814 503V622ZM762 1275L594 1265L274 1594V1660L559 1670L762 1307V1275Z" />
<glyph unicode="&#xf3;" glyph-name="oacute" horiz-adv-x="1168" d="M566 -22Q325 -22 194 94T62 419V512Q62 791 207 949T592 1107Q830 1107 967 992T1104 656V562Q1104 295 961 137T566 -22ZM814 622Q814 790 745 878T568 967Q520 967 477 956T402 927Q379
857 366 764T352 572V453Q352 293 423 206T597 118Q647 118 690 129T764 158Q786 215 800 305T814 503V622ZM518 1307L701 1670L973 1660V1594L673 1265L518 1275V1307Z" />
<glyph unicode="&#xf4;" glyph-name="ocircumflex" horiz-adv-x="1168" d="M566 -22Q325 -22 194 94T62 419V512Q62 791 207 949T592 1107Q830 1107 967 992T1104 656V562Q1104 295 961 137T566 -22ZM814 622Q814 790 745 878T568 967Q520 967 477 956T402 927Q379
857 366 764T352 572V453Q352 293 423 206T597 118Q647 118 690 129T764 158Q786 215 800 305T814 503V622ZM984 1275L809 1265L621 1484L440 1265L295 1275V1307L518 1680L761 1670L984 1307V1275Z" />
<glyph unicode="&#xf5;" glyph-name="otilde" horiz-adv-x="1168" d="M566 -22Q325 -22 194 94T62 419V512Q62 791 207 949T592 1107Q830 1107 967 992T1104 656V562Q1104 295 961 137T566 -22ZM814 622Q814 790 745 878T568 967Q520 967 477 956T402 927Q379
857 366 764T352 572V453Q352 293 423 206T597 118Q647 118 690 129T764 158Q786 215 800 305T814 503V622ZM211 1307Q211 1434 272 1497T441 1561Q498 1561 556 1541T668 1495T766 1450T842 1429Q876 1429 895 1458T915 1549L1052 1559V1487Q1052 1368 996 1301T834
1233Q783 1233 723 1253T604 1299T496 1344T417 1365Q381 1365 361 1346T340 1267L211 1257V1307Z" />
<glyph unicode="&#xf6;" glyph-name="odieresis" horiz-adv-x="1168" d="M566 -22Q325 -22 194 94T62 419V512Q62 791 207 949T592 1107Q830 1107 967 992T1104 656V562Q1104 295 961 137T566 -22ZM814 622Q814 790 745 878T568 967Q520 967 477 956T402 927Q379
857 366 764T352 572V453Q352 293 423 206T597 118Q647 118 690 129T764 158Q786 215 800 305T814 503V622ZM259 1389Q259 1420 267 1447T290 1495T324 1528T365 1540Q396 1540 423 1532T471 1508T502 1474T514 1432Q514 1402 506 1375T483 1327T450 1294T409 1282Q377
1282 350 1290T303 1314T271 1348T259 1389ZM739 1389Q739 1420 747 1447T770 1495T803 1528T844 1540Q875 1540 902 1532T950 1508T982 1474T994 1432Q994 1402 986 1375T963 1327T929 1294T887 1282Q855 1282 828 1290T782 1314T751 1348T739 1389Z" />
<glyph unicode="&#xf7;" glyph-name="divide" horiz-adv-x="1213" d="M160 687H1053V500H160V687ZM485 176Q485 209 492 239T513 292T544 328T582 342Q617 342 647 334T699 313T734 281T747 242Q747 210 740 181T719 129T687 93T648 79Q614 79 584 86T532 107T498
138T485 176ZM485 941Q485 974 493 1004T514 1057T544 1093T582 1107Q617 1107 647 1099T699 1078T734 1046T747 1007Q747 975 739 946T718 894T686 858T648 844Q614 844 584 851T532 872T498 903T485 941Z" />
<glyph unicode="&#xf8;" glyph-name="oslash" horiz-adv-x="1168" d="M566 -22Q534 -22 504 -19L440 -226H275V-206L342 10Q201 57 132 162T62 419V512Q62 657 101 768T211 954T379 1068T592 1107Q616 1107 639 1106T685 1102L750 1311H915V1291L844 1064Q904
1041 952 1004T1033 917T1085 801T1104 656V562Q1104 439 1071 333T971 148T803 24T566 -22ZM568 987Q531 987 501 981T449 967Q423 958 402 947Q388 904 377 847Q367 798 360 729T352 572V453Q352 375 366 317T407 215L644 973Q605 987 568 987ZM814 622Q814 693
803 747T774 842L543 105Q568 98 597 98Q633 98 663 104T717 118Q743 127 764 138Q778 177 789 232Q798 279 806 346T814 503V622Z" />
<glyph unicode="&#xf9;" glyph-name="ugrave" horiz-adv-x="1316" d="M441 373Q441 241 479 180T600 118Q654 118 715 158T833 267V933L660 967L680 1085L1123 1107V152L1266 118L1246 0L911 -22L853 136Q776 57 686 18T491 -22Q321 -22 236 73T151 354V933L8
967L28 1085L441 1107V373ZM754 1275L586 1265L266 1594V1660L551 1670L754 1307V1275Z" />
<glyph unicode="&#xfa;" glyph-name="uacute" horiz-adv-x="1316" d="M441 373Q441 241 479 180T600 118Q654 118 715 158T833 267V933L660 967L680 1085L1123 1107V152L1266 118L1246 0L911 -22L853 136Q776 57 686 18T491 -22Q321 -22 236 73T151 354V933L8
967L28 1085L441 1107V373ZM510 1307L693 1670L965 1660V1594L665 1265L510 1275V1307Z" />
<glyph unicode="&#xfb;" glyph-name="ucircumflex" horiz-adv-x="1316" d="M441 373Q441 241 479 180T600 118Q654 118 715 158T833 267V933L660 967L680 1085L1123 1107V152L1266 118L1246 0L911 -22L853 136Q776 57 686 18T491 -22Q321 -22 236 73T151 354V933L8
967L28 1085L441 1107V373ZM976 1275L801 1265L613 1484L432 1265L287 1275V1307L510 1680L753 1670L976 1307V1275Z" />
<glyph unicode="&#xfc;" glyph-name="udieresis" horiz-adv-x="1316" d="M441 373Q441 241 479 180T600 118Q654 118 715 158T833 267V933L660 967L680 1085L1123 1107V152L1266 118L1246 0L911 -22L853 136Q776 57 686 18T491 -22Q321 -22 236 73T151 354V933L8
967L28 1085L441 1107V373ZM251 1389Q251 1420 259 1447T282 1495T316 1528T357 1540Q388 1540 415 1532T463 1508T494 1474T506 1432Q506 1402 498 1375T475 1327T442 1294T401 1282Q369 1282 342 1290T295 1314T263 1348T251 1389ZM731 1389Q731 1420 739 1447T762
1495T795 1528T836 1540Q867 1540 894 1532T942 1508T974 1474T986 1432Q986 1402 978 1375T955 1327T921 1294T879 1282Q847 1282 820 1290T774 1314T743 1348T731 1389Z" />
<glyph unicode="&#xfd;" glyph-name="yacute" horiz-adv-x="1104" d="M1128 967L1036 948L703 -4Q617 -254 527 -355T299 -457Q228 -457 156 -439T24 -390L65 -219Q140 -252 226 -276T370 -300Q392 -287 419 -252T466 -172L72 948L-20 967L0 1085H450L470 967L347
948L590 222H606L846 948L724 967L744 1085H1108L1128 967ZM511 1307L694 1670L966 1660V1594L666 1265L511 1275V1307Z" />
<glyph unicode="&#xfe;" glyph-name="thorn" horiz-adv-x="1206" d="M147 1388L-16 1422L4 1540L437 1562V967L451 961Q469 981 497 1006T566 1054T655 1092T765 1107Q856 1107 925 1083T1042 1005T1114 869T1138 666V572Q1138 438 1103 329T1000 141T835 21T615
-22Q570 -22 525 -18T437 -7V-282L600 -316L580 -435H4L-16 -316L147 -282V1388ZM848 642Q848 738 836 800T801 900T746 952T673 967Q628 967 586 945T512 895T459 845T437 818V145Q472 135 525 127T635 118Q668 118 698 124T753 139Q780 148 805 160Q816 206 826
262Q834 310 841 376T848 523V642Z" />
<glyph unicode="&#xff;" glyph-name="ydieresis" horiz-adv-x="1104" d="M1128 967L1036 948L703 -4Q617 -254 527 -355T299 -457Q228 -457 156 -439T24 -390L65 -219Q140 -252 226 -276T370 -300Q392 -287 419 -252T466 -172L72 948L-20 967L0 1085H450L470 967L347
948L590 222H606L846 948L724 967L744 1085H1108L1128 967ZM252 1389Q252 1420 260 1447T283 1495T317 1528T358 1540Q389 1540 416 1532T464 1508T495 1474T507 1432Q507 1402 499 1375T476 1327T443 1294T402 1282Q370 1282 343 1290T296 1314T264 1348T252 1389ZM732
1389Q732 1420 740 1447T763 1495T796 1528T837 1540Q868 1540 895 1532T943 1508T975 1474T987 1432Q987 1402 979 1375T956 1327T922 1294T880 1282Q848 1282 821 1290T775 1314T744 1348T732 1389Z" />
<glyph unicode="&#x2013;" glyph-name="endash" horiz-adv-x="1121" d="M60 665H1081L1061 489H40L60 665Z" />
<glyph unicode="&#x2014;" glyph-name="emdash" horiz-adv-x="2115" d="M60 665H2075L2055 489H40L60 665Z" />
<glyph unicode="&#x2018;" glyph-name="quoteleft" horiz-adv-x="596" d="M496 1028Q496 986 486 949T460 883T421 838T374 821Q351 821 326 824T277 835T232 855T194 885Q184 896 174 911T157 949T145 1003T140 1076Q140 1136 149 1192T185 1307T263 1427T397
1562L479 1466Q428 1423 393 1386T337 1315T307 1253T298 1199Q298 1175 316 1163T364 1142Q423 1127 459 1097T496 1028Z" />
<glyph unicode="&#x2019;" glyph-name="quoteright" horiz-adv-x="596" d="M100 1355Q100 1397 110 1434T136 1500T175 1545T222 1562Q245 1562 270 1559T319 1548T364 1528T402 1498Q412 1487 422 1472T439 1434T451 1380T456 1307Q456 1247 447 1191T411 1076T333
956T199 821L117 917Q168 960 203 997T259 1068T289 1130T298 1184Q298 1208 280 1220T232 1241Q173 1256 137 1286T100 1355Z" />
<glyph unicode="&#x201a;" glyph-name="quotesinglbase" horiz-adv-x="596" d="M100 98Q100 140 110 177T136 243T175 288T222 305Q245 305 270 302T319 291T364 271T402 241Q412 230 422 215T439 177T451 123T456 50Q456 -10 447 -66T411 -181T333 -301T199 -436L117
-340Q168 -297 203 -260T259 -189T289 -127T298 -73Q298 -49 280 -37T232 -16Q173 -1 137 29T100 98Z" />
<glyph unicode="&#x201c;" glyph-name="quotedblleft" horiz-adv-x="1012" d="M912 1028Q912 986 902 949T876 883T837 838T790 821Q767 821 742 824T693 835T648 855T610 885Q600 896 590 911T573 949T561 1003T556 1076Q556 1136 565 1192T601 1307T679 1427T813
1562L895 1466Q844 1423 809 1386T753 1315T723 1253T714 1199Q714 1175 732 1163T780 1142Q839 1127 875 1097T912 1028ZM496 1028Q496 986 486 949T460 883T421 838T374 821Q351 821 326 824T277 835T232 855T194 885Q184 896 174 911T157 949T145 1003T140 1076Q140
1136 149 1192T185 1307T263 1427T397 1562L479 1466Q428 1423 393 1386T337 1315T307 1253T298 1199Q298 1175 316 1163T364 1142Q423 1127 459 1097T496 1028Z" />
<glyph unicode="&#x201d;" glyph-name="quotedblright" horiz-adv-x="1012" d="M100 1355Q100 1397 110 1434T136 1500T175 1545T222 1562Q245 1562 270 1559T319 1548T364 1528T402 1498Q412 1487 422 1472T439 1434T451 1380T456 1307Q456 1247 447 1191T411
1076T333 956T199 821L117 917Q168 960 203 997T259 1068T289 1130T298 1184Q298 1208 280 1220T232 1241Q173 1256 137 1286T100 1355ZM516 1355Q516 1397 526 1434T552 1500T591 1545T638 1562Q661 1562 686 1559T735 1548T780 1528T818 1498Q828 1487 838 1472T855
1434T867 1380T872 1307Q872 1247 863 1191T827 1076T749 956T615 821L533 917Q584 960 619 997T675 1068T705 1130T714 1184Q714 1208 696 1220T648 1241Q589 1256 553 1286T516 1355Z" />
<glyph unicode="&#x201e;" glyph-name="quotedblbase" horiz-adv-x="1012" d="M100 98Q100 140 110 177T136 243T175 288T222 305Q245 305 270 302T319 291T364 271T402 241Q412 230 422 215T439 177T451 123T456 50Q456 -10 447 -66T411 -181T333 -301T199 -436L117
-340Q168 -297 203 -260T259 -189T289 -127T298 -73Q298 -49 280 -37T232 -16Q173 -1 137 29T100 98ZM516 98Q516 140 526 177T552 243T591 288T638 305Q661 305 686 302T735 291T780 271T818 241Q828 230 838 215T855 177T867 123T872 50Q872 -10 863 -66T827
-181T749 -301T615 -436L533 -340Q584 -297 619 -260T675 -189T705 -127T714 -73Q714 -49 696 -37T648 -16Q589 -1 553 29T516 98Z" />
<glyph unicode="&#x2022;" glyph-name="bullet" horiz-adv-x="757" d="M120 577Q120 642 135 701T176 806T238 877T313 904Q382 904 441 889T543 847T612 785T637 709Q637 644 622 586T581 483T519 412T444 385Q376 385 317 400T214 441T145 503T120 577Z" />
<glyph unicode="&#x2039;" glyph-name="guilsinglleft" horiz-adv-x="750" d="M445 115L50 536V596L445 1017H640V995L340 576V556L640 137V115H445Z" />
<glyph unicode="&#x203a;" glyph-name="guilsinglright" horiz-adv-x="750" d="M110 115V137L410 556V576L110 995V1017H305L700 596V536L305 115H110Z" />
</font>
</defs>
</svg>
