<?xml version="1.0" standalone="no"?>
<!DOCTYPE svg PUBLIC "-//W3C//DTD SVG 1.1//EN" "http://www.w3.org/Graphics/SVG/1.1/DTD/svg11.dtd">
<svg xmlns="http://www.w3.org/2000/svg">
<defs >
<font id="NoticiaText" horiz-adv-x="1107" ><font-face
    font-family="Noticia Text"
    units-per-em="2048"
    panose-1="2 0 5 3 6 0 0 2 0 4"
    ascent="2202"
    descent="-593"
    alphabetic="0" />
<glyph unicode=" " glyph-name="space" horiz-adv-x="550" />
<glyph unicode="!" glyph-name="exclam" horiz-adv-x="592" d="M180 79Q180 113 188 144T209 199T241 237T281 251Q317 251 348 243T402 221T439 188T452 148Q452 114 444 84T423 30T390 -8T350 -22Q314 -22 283 -14T229 7T193 39T180 79ZM213 1540L410 1562L430
1540L392 370H251L213 1540Z" />
<glyph unicode="&quot;" glyph-name="quotedbl" horiz-adv-x="604" d="M70 1540H256V1498L193 1157H70V1540ZM328 1540H514V1498L451 1157H328V1540Z" />
<glyph unicode="#" glyph-name="numbersign" horiz-adv-x="1317" d="M753 306H467L424 0H269V20L309 306H90V443H329L395 909H156V1046H414L458 1353H613V1333L572 1046H858L902 1353H1057V1333L1016 1046H1227V909H997L931 443H1161V306H911L868 0H713V20L753
306ZM487 443H773L839 909H553L487 443Z" />
<glyph unicode="$" glyph-name="dollar" horiz-adv-x="1100" d="M622 762Q810 652 896 561T983 345Q983 180 854 79Q758 3 613 -15V-226H488V-22Q381 -20 291 -3Q192 15 133 41L112 300L229 325L311 131Q348 120 393 113Q436 107 488 107V622Q483 625 479 628Q225
778 169 860T112 1039Q112 1185 237 1280Q334 1353 488 1370V1562H613V1375Q682 1373 752 1363Q837 1351 916 1323L937 1053L832 1031L750 1224Q709 1235 666 1240Q640 1244 613 1245V767Q617 765 622 762ZM637 117Q705 127 763 145Q773 170 783 211T793 310Q793
373 734 441Q698 483 613 542V113Q625 115 637 117ZM434 1235Q367 1224 321 1208Q312 1178 307 1145T302 1074Q302 1003 361 943Q398 907 488 846V1242Q460 1239 434 1235Z" />
<glyph unicode="%" glyph-name="percent" horiz-adv-x="1683" d="M1220 1353H1395V1333L429 0H254V20L1220 1353ZM108 1074Q108 1136 131 1191T196 1287T291 1351T409 1375Q471 1375 526 1352T622 1287T686 1191T710 1074Q710 1011 687 957T622 861T526 797T409
773Q346 773 292 796T196 861T132 956T108 1074ZM259 1074Q259 1032 271 1000T304 945T352 911T409 899Q439 899 466 910T514 944T547 999T559 1074Q559 1116 547 1148T514 1203T466 1237T409 1249Q379 1249 352 1238T304 1204T271 1149T259 1074ZM939 279Q939
341 962 396T1027 492T1122 556T1240 580Q1302 580 1357 557T1453 492T1517 396T1541 279Q1541 216 1518 162T1453 66T1357 2T1240 -22Q1177 -22 1123 1T1027 66T963 161T939 279ZM1090 279Q1090 237 1102 205T1135 150T1183 116T1240 104Q1270 104 1297 115T1345
149T1378 204T1390 279Q1390 321 1378 353T1345 408T1297 442T1240 454Q1210 454 1183 443T1135 409T1102 354T1090 279Z" />
<glyph unicode="&amp;" glyph-name="ampersand" horiz-adv-x="1439" d="M1215 519Q1215 431 1183 351T1091 202Q1156 157 1216 132T1330 107Q1375 107 1414 112T1483 124Q1517 131 1546 141V45Q1519 26 1482 11Q1450 -2 1405 -12T1299 -22Q1218 -22 1136 9T969
98Q882 41 771 10T526 -22Q422 -22 339 -5T197 49T108 141T77 274V304Q77 370 102 427T168 534T261 623T368 695Q300 792 262 867T223 999V1029Q223 1098 251 1160T335 1271T472 1347T658 1375Q739 1375 800 1356T904 1302T967 1217T988 1105V1076Q988 1019 962
969T887 872T765 777T601 676Q687 574 782 474T974 291Q1008 339 1026 398T1045 526V552L892 586L912 684L1215 706V519ZM546 107Q637 107 715 126T856 183Q754 268 653 374T451 599Q399 568 364 538T307 474T276 405T267 328V312Q267 264 289 226T350 162T439
121T546 107ZM798 1069Q798 1112 784 1145T744 1200T683 1234T606 1246Q575 1246 550 1243T504 1236Q481 1232 463 1226Q449 1205 438 1179Q428 1157 421 1128T413 1064V1047Q413 1008 419 976T438 913T473 849T525 775Q582 806 632 839T718 908T776 979T798 1053V1069Z"
/>
<glyph unicode="&apos;" glyph-name="quotesingle" horiz-adv-x="346" d="M70 1540H256V1498L193 1157H70V1540Z" />
<glyph unicode="(" glyph-name="parenleft" horiz-adv-x="663" d="M293 543Q293 430 306 328T342 134T394 -36T453 -181Q523 -335 613 -456L520 -516Q405 -392 315 -230Q276 -161 240 -78T174 103T128 311T110 543Q110 664 127 774T174 982T239 1162T315 1315Q405
1476 520 1601L613 1541Q523 1421 453 1267Q423 1201 394 1122T343 952T307 758T293 543Z" />
<glyph unicode=")" glyph-name="parenright" horiz-adv-x="663" d="M370 543Q370 655 356 757T320 951T269 1122T210 1267Q140 1421 50 1541L143 1601Q257 1476 348 1315Q386 1246 423 1163T489 982T535 775T553 543Q553 421 536 311T489 104T423 -77T348 -230Q257
-392 143 -516L50 -456Q140 -335 210 -181Q240 -115 268 -36T319 134T356 327T370 543Z" />
<glyph unicode="*" glyph-name="asterisk" horiz-adv-x="780" d="M428 1103L459 826V802H306V826L337 1103L112 938L91 926L16 1058L36 1070L290 1182L35 1294L15 1306L91 1438L112 1426L337 1261L306 1538V1562H459V1538L428 1261L653 1426L674 1438L749 1306L729
1294L474 1182L730 1070L750 1058L674 926L653 938L428 1103Z" />
<glyph unicode="+" glyph-name="plus" horiz-adv-x="1063" d="M605 985V667H903V520H605V202H458V520H160V667H458V985H605Z" />
<glyph unicode="," glyph-name="comma" horiz-adv-x="550" d="M90 79Q90 113 98 144T120 199T152 237T191 251Q230 251 272 239T341 198Q350 189 358 176T372 144T382 100T386 39Q386 -11 379 -58T349 -153T284 -254T172 -366L104 -286Q189 -215 222 -160T255
-64Q255 -44 239 -33T200 -16Q151 -3 121 22T90 79Z" />
<glyph unicode="-" glyph-name="hyphen" horiz-adv-x="803" d="M60 667H753V520H60V667Z" />
<glyph unicode="." glyph-name="period" horiz-adv-x="550" d="M140 79Q140 113 148 144T170 199T202 237T241 251Q277 251 308 243T362 221T399 188T412 148Q412 114 404 84T382 30T350 -8T310 -22Q274 -22 243 -14T189 8T153 40T140 79Z" />
<glyph unicode="/" glyph-name="slash" horiz-adv-x="833" d="M628 1540H793V1520L225 -295H60V-275L628 1540Z" />
<glyph unicode="0" glyph-name="zero" horiz-adv-x="1176" d="M561 -22Q334 -22 224 113T114 517V622Q114 993 240 1184T598 1375Q836 1375 949 1244T1062 835V731Q1062 354 943 166T561 -22ZM868 782Q868 1020 805 1133T588 1246Q437 1246 373 1120T308 712V572Q308
335 375 221T586 107Q742 107 805 240T868 642V782Z" />
<glyph unicode="1" glyph-name="one" horiz-adv-x="728" d="M126 98L309 132V1166H63L53 1269L388 1353H499V132L681 98L661 0H146L126 98Z" />
<glyph unicode="2" glyph-name="two" horiz-adv-x="982" d="M701 998Q701 1117 639 1181T467 1246Q411 1246 360 1232T270 1199L213 998L104 1009V1270Q182 1313 287 1344T491 1375Q680 1375 785 1289T891 1037Q891 939 841 837T707 628T517 409T295 180L299 170H736L818
363L922 340L899 0H68V145Q204 288 320 410T520 637T653 831T701 998Z" />
<glyph unicode="3" glyph-name="three" horiz-adv-x="990" d="M445 -22Q349 -22 251 6T85 72L86 330L191 342L243 149Q294 130 348 119T458 107Q567 107 639 180T711 378Q711 506 637 581T448 657H345V786H438Q543 786 603 849T663 1027Q663 1138 608 1192T439
1246Q394 1246 351 1237T270 1214L217 1021L112 1033V1301Q199 1338 289 1356T467 1375Q651 1375 752 1292T853 1051Q853 935 798 856T660 733Q772 698 836 611T900 405Q900 205 776 92T445 -22Z" />
<glyph unicode="4" glyph-name="four" horiz-adv-x="1026" d="M423 98L616 132V322H47L24 408L603 1353H797L230 461L235 451H616V817H806V451H938L962 351L806 317V132L958 98L938 0H443L423 98Z" />
<glyph unicode="5" glyph-name="five" horiz-adv-x="1043" d="M475 -22Q381 -22 279 5T110 66V323L225 331L286 137Q316 126 371 117T488 107Q604 107 686 189T769 408Q769 539 691 612T478 685Q414 685 354 676T225 642L129 729L164 1353H877V1183H293L267 778Q312
797 375 809T497 822Q715 822 837 723T959 431Q959 232 819 105T475 -22Z" />
<glyph unicode="6" glyph-name="six" horiz-adv-x="1051" d="M104 572Q104 925 288 1150T732 1375Q777 1375 815 1370T894 1353V1237Q829 1243 803 1244T749 1246Q559 1246 429 1084T299 691L309 687Q366 731 436 759T588 787Q770 787 876 683T983 427V398Q983
201 862 90T545 -22Q333 -22 219 115T104 500V572ZM793 388Q793 512 722 585T529 658Q464 658 407 643T299 607V521Q299 324 374 216T562 107Q669 107 731 179T793 372V388Z" />
<glyph unicode="7" glyph-name="seven" horiz-adv-x="926" d="M165 980L50 988V1353H938V1260L423 0H244L752 1173L746 1183H218L165 980Z" />
<glyph unicode="8" glyph-name="eight" horiz-adv-x="1018" d="M84 304Q84 427 159 524T361 671Q253 729 194 807T135 1007Q135 1161 246 1268T538 1375Q708 1375 800 1299T893 1085Q893 976 822 886T641 747Q784 686 864 594T944 376Q944 198 821 88T485 -22Q296
-22 190 62T84 304ZM496 607Q482 613 468 618T440 631Q363 585 319 514T274 346Q274 234 334 171T502 107Q609 107 681 174T754 346Q754 423 695 485T496 607ZM324 1032Q324 930 384 875T557 780Q626 818 664 884T703 1049Q703 1143 657 1194T523 1246Q433 1246
379 1185T324 1032Z" />
<glyph unicode="9" glyph-name="nine" horiz-adv-x="1058" d="M284 941Q284 823 352 748T529 672Q589 672 651 687T763 726V798Q763 1013 698 1129T509 1246Q396 1246 340 1171T284 957V941ZM324 -22Q278 -22 232 -16T147 1V117Q179 112 215 110T295 107Q502 107
632 255T763 642L753 646Q709 605 631 574T470 543Q310 543 202 645T94 902V931Q94 1132 207 1253T524 1375Q734 1375 844 1245T954 844V766Q954 379 786 179T324 -22Z" />
<glyph unicode=":" glyph-name="colon" horiz-adv-x="596" d="M152 79Q152 113 160 144T181 199T213 237T253 251Q289 251 320 243T374 221T411 188T424 148Q424 114 416 84T395 30T362 -8T322 -22Q286 -22 255 -14T201 7T165 39T152 79ZM152 844Q152 878 160
909T182 964T214 1002T253 1016Q289 1016 320 1008T374 986T411 953T424 913Q424 879 416 849T394 795T362 757T322 743Q286 743 255 751T201 773T165 805T152 844Z" />
<glyph unicode=";" glyph-name="semicolon" horiz-adv-x="601" d="M152 844Q152 878 160 909T182 964T214 1002T253 1016Q289 1016 320 1008T374 986T411 953T424 913Q424 879 416 849T394 795T362 757T322 743Q286 743 255 751T201 773T165 805T152 844ZM152
79Q152 113 160 144T182 199T214 237T253 251Q292 251 334 239T403 198Q412 189 420 176T434 144T444 100T448 39Q448 -11 441 -58T411 -153T346 -254T234 -366L166 -286Q251 -215 284 -160T317 -64Q317 -44 301 -33T262 -16Q213 -3 183 22T152 79Z" />
<glyph unicode="&lt;" glyph-name="less" horiz-adv-x="1148" d="M140 555V651L938 1025H968V886L376 608V598L968 321V181H938L140 555Z" />
<glyph unicode="=" glyph-name="equal" horiz-adv-x="1122" d="M160 464H962V307H160V464ZM160 927H962V770H160V927Z" />
<glyph unicode="&gt;" glyph-name="greater" horiz-adv-x="1148" d="M210 181H180V321L772 598V608L180 886V1025H210L1008 651V555L210 181Z" />
<glyph unicode="?" glyph-name="question" horiz-adv-x="1019" d="M546 758Q484 702 456 661T427 576Q427 537 451 517T519 496Q547 496 572 500T617 511Q639 518 658 527V426Q636 412 608 401Q584 391 551 384T475 376Q430 376 389 388T316 425T266 487T247 575Q247
611 256 646T286 717T340 793T423 877L575 1017Q620 1059 651 1091T702 1153T730 1211T739 1273Q739 1308 725 1338T681 1392T602 1428T483 1442Q439 1442 406 1437T349 1426Q322 1419 302 1410L232 1185L120 1202V1479Q166 1502 226 1520Q277 1536 348 1549T510
1562Q608 1562 684 1544T813 1489T892 1401T919 1282Q919 1225 908 1179T871 1090T803 1000T697 896L546 758ZM296 79Q296 113 304 144T325 199T357 237T397 251Q433 251 464 243T518 221T555 188T568 148Q568 114 560 84T539 30T506 -8T466 -22Q430 -22 399 -14T345
7T309 39T296 79Z" />
<glyph unicode="@" glyph-name="at" horiz-adv-x="1860" d="M753 523Q731 365 752 281T839 196Q876 196 911 215T979 263T1039 327T1088 394T1123 450T1141 483L1205 946Q1184 955 1158 962Q1136 968 1107 973T1046 979Q1011 979 980 971T925 954Q897 943 873
929Q849 891 828 836Q809 789 790 721T758 559L753 523ZM1436 -165Q1365 -206 1280 -238Q1207 -265 1110 -287T900 -310Q791 -310 693 -296T510 -251T357 -168T240 -44T166 127T140 350Q140 501 172 635T265 884T410 1089T601 1243T830 1341T1090 1375Q1258 1375
1390 1330T1613 1203T1752 1006T1800 750Q1800 627 1778 533T1717 367T1630 247T1528 167T1422 121T1324 102L1178 88L1097 166L1123 356Q1117 345 1103 321T1065 267T1012 206T946 148T869 105T781 88Q716 88 670 107T595 167T558 275T561 435L573 528Q588 640
626 737T724 907T866 1021T1052 1063Q1113 1063 1173 1051T1282 1024Q1338 1006 1391 985L1279 189Q1314 191 1352 202T1429 236T1501 296T1562 391T1604 526T1620 710Q1620 840 1587 941T1485 1113T1311 1219T1060 1255Q954 1255 858 1224T679 1135T531 997T417
820T345 611T320 380Q320 217 370 108T504 -68T701 -162T940 -190Q1045 -190 1135 -173T1292 -135Q1370 -110 1436 -79V-165Z" />
<glyph unicode="A" glyph-name="A" horiz-adv-x="1218" d="M-8 98L100 127L540 1353H689L1118 127L1226 98L1206 0H821L801 98L929 127L835 406H344L248 127L376 98L356 0H12L-8 98ZM389 535H791L597 1104H587L389 535Z" />
<glyph unicode="B" glyph-name="B" horiz-adv-x="1160" d="M229 1221L76 1255L96 1353H573Q785 1353 895 1276T1006 1041Q1006 927 949 847T809 724L811 708Q922 687 993 611T1064 418Q1064 225 947 113T624 0H96L76 98L229 132V1221ZM419 638V129H556Q648 129
717 141T845 178Q858 219 866 273T874 392Q874 509 793 573T573 638H419ZM419 1224V767H550Q628 767 683 779T777 806Q791 844 803 896T816 1013Q816 1121 745 1172T534 1224H419Z" />
<glyph unicode="C" glyph-name="C" horiz-adv-x="1176" d="M100 604Q100 985 254 1180T705 1375Q800 1375 897 1360T1068 1316L1089 1046L984 1024L901 1219Q863 1231 804 1238T678 1246Q592 1246 515 1223T379 1158Q339 1066 315 938T290 683V550Q290 336 407
222T723 107Q817 107 915 136T1092 211V105Q999 45 886 12T663 -22Q385 -22 243 112T100 515V604Z" />
<glyph unicode="D" glyph-name="D" horiz-adv-x="1362" d="M231 1221L78 1255L98 1353H638Q940 1353 1093 1202T1246 765V687Q1246 369 1091 185T661 0H98L78 98L231 132V1221ZM421 1224V129H632Q710 129 780 141T910 178Q972 255 1014 373T1056 622V716Q1056
957 941 1090T599 1224H421Z" />
<glyph unicode="E" glyph-name="E" horiz-adv-x="1191" d="M419 643V129H900L983 322L1087 299L1063 0H96L76 98L229 132V1221L76 1255L96 1353H1033L1057 1053L954 1031L871 1224H419V772H776L810 894L909 874V540L810 520L776 643H419Z" />
<glyph unicode="F" glyph-name="F" horiz-adv-x="1043" d="M415 643V132L617 98L597 0H92L72 98L225 132V1221L72 1255L92 1353H969L993 1053L890 1031L807 1224H415V772H735L769 894L867 874V540L769 520L735 643H415Z" />
<glyph unicode="G" glyph-name="G" horiz-adv-x="1300" d="M1092 105Q996 46 881 12T653 -22Q391 -22 247 113T102 505V594Q102 972 259 1173T714 1375Q812 1375 909 1360T1077 1318L1098 1048L993 1026L911 1219Q873 1230 813 1238T691 1246Q604 1246 526 1223T391
1158Q345 1065 319 942T292 683V550Q292 339 413 223T703 107Q755 107 806 117T902 143V504L749 538L769 646H1224L1244 538L1092 504V105Z" />
<glyph unicode="H" glyph-name="H" horiz-adv-x="1459" d="M225 1221L72 1255L92 1353H547L567 1255L415 1221V778H1039V1221L887 1255L907 1353H1363L1383 1255L1229 1221V132L1383 98L1363 0H907L887 98L1039 132V649H415V132L567 98L547 0H92L72 98L225 132V1221Z" />
<glyph unicode="I" glyph-name="I" horiz-adv-x="643" d="M225 1221L72 1255L92 1353H547L567 1255L415 1221V132L567 98L547 0H92L72 98L225 132V1221Z" />
<glyph unicode="J" glyph-name="J" horiz-adv-x="859" d="M647 336Q647 162 563 70T312 -22Q252 -22 192 -6T91 31L70 291L173 313L255 121Q276 113 296 110T333 106Q357 106 382 112T426 127Q440 165 448 228T457 369V1221L264 1255L284 1353H779L799 1255L647
1221V336Z" />
<glyph unicode="K" glyph-name="K" horiz-adv-x="1304" d="M72 98L225 132V1221L72 1255L92 1353H547L567 1255L415 1221V664L429 658L973 1233L863 1254L883 1353H1245L1265 1255L1143 1221L710 766L1166 133L1312 98L1292 0H1048L589 639L415 456V132L567 98L547
0H92L72 98Z" />
<glyph unicode="L" glyph-name="L" horiz-adv-x="1018" d="M227 1221L74 1255L94 1353H549L569 1255L417 1221V129H753L836 322L940 300L915 0H94L74 98L227 132V1221Z" />
<glyph unicode="M" glyph-name="M" horiz-adv-x="1922" d="M225 1221L72 1255L92 1353H519L955 311H971L1389 1353H1826L1846 1255L1694 1221V132L1846 98L1826 0H1371L1351 98L1504 132V1210H1488L996 0H891L381 1210H365V132L517 98L497 0H92L72 98L225 132V1221Z" />
<glyph unicode="N" glyph-name="N" horiz-adv-x="1532" d="M225 1221L72 1255L92 1353H512L1167 136H1183V1221L1029 1255L1049 1353H1456L1476 1255L1324 1221V0H1037L381 1218H365V132L517 98L497 0H92L72 98L225 132V1221Z" />
<glyph unicode="O" glyph-name="O" horiz-adv-x="1345" d="M663 -22Q384 -22 243 115T102 525V604Q102 993 250 1184T683 1375Q961 1375 1102 1239T1243 827V749Q1243 372 1099 175T663 -22ZM1053 783Q1053 1019 949 1132T653 1246Q564 1246 485 1219T361 1158Q331
1066 312 952T292 703V570Q292 349 404 228T693 107Q781 107 858 133T985 196Q1017 296 1035 416T1053 650V783Z" />
<glyph unicode="P" glyph-name="P" horiz-adv-x="1102" d="M227 1221L74 1255L94 1353H595Q817 1353 934 1270T1052 1008Q1052 822 928 712T618 601H417V132L629 98L609 0H94L74 98L227 132V1221ZM417 1224V730H577Q650 730 711 739T827 768Q843 819 850 870T858
968Q858 1086 779 1155T547 1224H417Z" />
<glyph unicode="Q" glyph-name="Q" horiz-adv-x="1360" d="M661 -22Q382 -22 241 115T100 525V604Q100 980 245 1177T681 1375Q959 1375 1100 1239T1241 827V749Q1241 300 1035 109Q1072 30 1109 -17T1204 -65Q1239 -65 1273 -59T1338 -40V-140Q1304 -163 1259
-178T1162 -194Q1068 -194 1005 -151T896 -11L883 15Q832 -3 778 -12T661 -22ZM1051 783Q1051 1016 948 1131T651 1246Q563 1246 482 1220T349 1158Q338 1120 328 1074T309 973T295 850T290 703V570Q290 540 292 511T299 457Q331 522 396 558T550 595Q675 595 765
533T931 323L993 196Q1011 251 1031 385T1051 650V783ZM782 223Q717 351 642 408T479 466Q341 466 341 356Q341 270 443 189T691 107Q731 107 765 111T830 124L782 223Z" />
<glyph unicode="R" glyph-name="R" horiz-adv-x="1205" d="M225 1221L72 1255L92 1353H584Q792 1353 902 1269T1012 1010Q1012 880 953 784T790 639L784 620L1061 132L1207 98L1187 0H938L598 601H415V132L567 98L547 0H92L72 98L225 132V1221ZM415 1224V730H538Q600
730 663 739T789 769Q800 814 809 867T818 969Q818 1088 742 1156T516 1224H415Z" />
<glyph unicode="S" glyph-name="S" horiz-adv-x="1066" d="M619 762Q807 652 893 561T980 345Q980 180 852 79T508 -22Q388 -22 289 -4T130 41L109 300L226 325L308 131Q345 120 390 114T493 107Q567 107 634 117T760 145Q770 170 780 211T790 310Q790 373 731
441T476 628Q222 778 166 860T109 1039Q109 1185 234 1280T581 1375Q665 1375 749 1363T913 1323L934 1053L829 1031L747 1224Q706 1235 664 1240T575 1246Q498 1246 431 1235T318 1208Q309 1178 304 1145T299 1074Q299 1003 358 944T619 762Z" />
<glyph unicode="T" glyph-name="T" horiz-adv-x="1139" d="M475 1224H175L113 1054L14 1063L29 1353H1111L1125 1063L1027 1054L964 1224H665V132L818 98L798 0H342L322 98L475 132V1224Z" />
<glyph unicode="U" glyph-name="U" horiz-adv-x="1358" d="M360 546Q360 323 454 215T713 107Q792 107 861 130T971 183Q1005 245 1027 333T1049 521V1221L896 1255L916 1353H1322L1342 1255L1190 1221V544Q1190 253 1063 116T673 -22Q424 -22 297 102T170 491V1221L16
1255L36 1353H492L512 1255L360 1221V546Z" />
<glyph unicode="V" glyph-name="V" horiz-adv-x="1180" d="M402 1254L253 1225L604 182H620L970 1225L821 1254L841 1353H1204L1224 1254L1116 1226L686 0H495L63 1226L-44 1254L-24 1353H382L402 1254Z" />
<glyph unicode="W" glyph-name="W" horiz-adv-x="1998" d="M403 1254L254 1225L589 232H605L947 1353H1138L1472 232H1488L1792 1225L1639 1254L1659 1353H2022L2042 1254L1939 1227L1553 0H1362L1029 1107H1013L676 0H484L62 1227L-44 1254L-24 1353H383L403 1254Z" />
<glyph unicode="X" glyph-name="X" horiz-adv-x="1273" d="M188 1226L72 1254L92 1353H493L513 1254L395 1226L662 823H678L936 1225L816 1254L836 1353H1191L1211 1254L1093 1226L741 700L1120 127L1237 98L1217 0H816L796 98L914 127L615 580H599L310 128L427
98L407 0H56L36 98L153 127L534 702L188 1226Z" />
<glyph unicode="Y" glyph-name="Y" horiz-adv-x="1122" d="M478 578L62 1226L-52 1254L-32 1353H378L398 1254L266 1226L587 722H603L907 1226L782 1254L802 1353H1154L1174 1254L1063 1226L668 576V132L820 98L800 0H345L325 98L478 132V578Z" />
<glyph unicode="Z" glyph-name="Z" horiz-adv-x="1130" d="M1023 1353V1229L307 143L312 129H869L951 322L1054 300L1030 0H82V125L797 1210L792 1224H276L194 1031L90 1053L115 1353H1023Z" />
<glyph unicode="[" glyph-name="bracketleft" horiz-adv-x="634" d="M180 1677H538V1581H347V-361H538V-457H180V1677Z" />
<glyph unicode="\" glyph-name="backslash" horiz-adv-x="833" d="M773 -275V-295H608L40 1520V1540H205L773 -275Z" />
<glyph unicode="]" glyph-name="bracketright" horiz-adv-x="634" d="M454 -457H96V-361H287V1581H96V1677H454V-457Z" />
<glyph unicode="^" glyph-name="asciicircum" horiz-adv-x="1104" d="M504 1540H600L964 1079V1049H825L557 1384H547L280 1049H140V1079L504 1540Z" />
<glyph unicode="_" glyph-name="underscore" horiz-adv-x="1116" d="M60 -235H1096V-379H60V-235Z" />
<glyph unicode="`" glyph-name="grave" horiz-adv-x="832" d="M549 1275L431 1265L141 1594V1660L316 1670L549 1307V1275Z" />
<glyph unicode="a" glyph-name="a" horiz-adv-x="1150" d="M939 132L1112 98L1092 0L837 -22L779 155Q701 60 612 19T419 -22Q279 -22 194 48T108 237Q108 420 270 513T759 607V702Q759 852 705 919T514 987Q482 987 441 983T364 972L304 760L206 770V1053Q266
1074 354 1090T533 1107Q738 1107 838 1017T939 735V132ZM759 487Q609 487 493 468T316 415Q304 387 296 351T288 275Q288 192 343 145T487 98Q562 98 635 135T759 225V487Z" />
<glyph unicode="b" glyph-name="b" horiz-adv-x="1122" d="M337 947L351 941Q411 1020 486 1063T669 1107Q841 1107 934 996T1028 666V572Q1028 295 902 137T565 -22Q479 -22 361 -1T157 43V1408L4 1442L24 1540L337 1562V947ZM848 642Q848 815 786 901T606 987Q537
987 464 943T337 838V125Q386 115 452 107T585 98Q646 98 700 117T787 160Q808 204 828 306T848 523V642Z" />
<glyph unicode="c" glyph-name="c" horiz-adv-x="972" d="M96 492Q96 788 222 947T572 1107Q648 1107 724 1092T877 1044L896 810L786 787L717 966Q683 976 647 981T569 987Q507 987 448 972T336 927Q314 867 295 768T276 552V443Q276 283 369 191T593 98Q665
98 738 116T888 171V75Q819 32 730 5T544 -22Q333 -22 215 86T96 399V492Z" />
<glyph unicode="d" glyph-name="d" horiz-adv-x="1186" d="M979 132L1132 98L1112 0L877 -22L819 155Q746 60 660 18T480 -22Q301 -22 200 90T98 413V506Q98 787 224 947T576 1107Q618 1107 672 1102T799 1083V1408L646 1442L666 1540L979 1562V132ZM278 434Q278
271 348 185T535 98Q608 98 680 137T799 225V960Q741 972 677 979T556 987Q491 987 431 969T328 920Q304 842 291 749T278 553V434Z" />
<glyph unicode="e" glyph-name="e" horiz-adv-x="1034" d="M276 523V447Q276 279 368 189T589 98Q672 98 752 116T901 163V67Q814 21 719 0T529 -22Q323 -22 210 90T96 414V497Q96 784 223 945T571 1107Q774 1107 864 1004T954 643V523H276ZM336 927Q314 871 299
791T279 643H764Q764 825 712 906T543 987Q484 987 427 969T336 927Z" />
<glyph unicode="f" glyph-name="f" horiz-adv-x="747" d="M259 1193Q259 1378 336 1470T558 1562Q604 1562 652 1551T735 1525L692 1394Q635 1413 577 1424T469 1435Q457 1405 448 1347T439 1209V1085H653L673 987L439 953V132L652 98L632 0H126L106 98L259 132V953L96
987L116 1085H259V1193Z" />
<glyph unicode="g" glyph-name="g" horiz-adv-x="1075" d="M824 978L820 968Q863 939 895 881T927 760V735Q927 567 818 468T527 368Q462 368 408 380Q354 330 321 286T287 214Q287 188 305 174T358 160H582Q820 160 938 91T1057 -126Q1057 -288 919 -372T525
-457Q303 -457 198 -410T92 -259Q92 -192 146 -124T301 9Q229 23 188 61T147 161Q147 220 194 285T320 409Q234 450 191 520T147 670V696Q147 892 256 999T547 1107Q576 1107 620 1101T700 1085H1014L1032 978H824ZM411 0Q341 -52 297 -109T252 -215Q252 -286 325
-311T585 -337Q662 -337 740 -325T880 -286Q897 -262 907 -229T917 -161Q917 -70 845 -35T594 0H411ZM747 764Q747 869 681 928T523 987Q477 987 436 979T367 957Q346 903 337 847T327 744V706Q327 609 398 549T551 488Q599 488 637 495T707 518Q724 550 735 605T747
726V764Z" />
<glyph unicode="h" glyph-name="h" horiz-adv-x="1324" d="M83 98L236 132V1408L83 1442L103 1540L416 1562V947L430 941Q492 1020 576 1063T761 1107Q939 1107 1023 1013T1108 726V132L1261 98L1241 0H795L775 98L928 132V692Q928 851 875 919T702 987Q626 987
549 944T416 838V132L569 98L549 0H103L83 98Z" />
<glyph unicode="i" glyph-name="i" horiz-adv-x="660" d="M259 953L106 987L126 1085L439 1107V132L592 98L572 0H126L106 98L259 132V953ZM212 1401Q212 1457 241 1498T310 1540Q367 1540 407 1511T448 1441Q448 1385 419 1344T350 1303Q294 1303 253 1332T212 1401Z" />
<glyph unicode="j" glyph-name="j" horiz-adv-x="569" d="M412 -47Q412 -255 341 -356T105 -457Q51 -457 -4 -447T-104 -420L-68 -289Q-8 -305 64 -317T192 -330Q210 -292 221 -229T232 -86V953L49 987L69 1085L412 1107V-47ZM185 1401Q185 1457 214 1498T283
1540Q340 1540 380 1511T421 1441Q421 1385 392 1344T323 1303Q267 1303 226 1332T185 1401Z" />
<glyph unicode="k" glyph-name="k" horiz-adv-x="1185" d="M84 98L237 132V1408L84 1442L104 1540L417 1562V573L431 567L860 968L768 987L788 1085H1110L1130 987L1043 968L684 643L1027 132L1161 98L1141 0H918L561 532L417 402V132L570 98L550 0H104L84 98Z" />
<glyph unicode="l" glyph-name="l" horiz-adv-x="642" d="M246 1408L93 1442L113 1540L426 1562V132L579 98L559 0H113L93 98L246 132V1408Z" />
<glyph unicode="m" glyph-name="m" horiz-adv-x="2034" d="M104 98L257 132V953L104 987L124 1085L359 1107L417 929Q489 1015 584 1061T780 1107Q911 1107 988 1061T1098 929Q1190 1025 1283 1066T1472 1107Q1650 1107 1735 1013T1821 726V132L1974 98L1954 0H1508L1488
98L1641 132V682Q1641 837 1586 912T1399 987Q1341 987 1271 954T1129 858V132L1282 98L1262 0H816L796 98L949 132V682Q949 838 896 912T707 987Q647 987 575 952T437 858V132L590 98L570 0H124L104 98Z" />
<glyph unicode="n" glyph-name="n" horiz-adv-x="1346" d="M106 98L259 132V953L106 987L126 1085L361 1107L419 929Q493 1013 586 1060T782 1107Q961 1107 1046 1014T1131 726V132L1284 98L1264 0H818L798 98L951 132V682Q951 835 902 911T723 987Q656 987 583
954T439 858V132L592 98L572 0H126L106 98Z" />
<glyph unicode="o" glyph-name="o" horiz-adv-x="1114" d="M547 -22Q329 -22 213 94T96 419V512Q96 788 222 947T557 1107Q775 1107 896 991T1018 656V562Q1018 297 892 138T547 -22ZM838 622Q838 793 760 888T537 987Q482 987 427 970T336 927Q310 868 293 774T276
572V453Q276 285 362 192T577 98Q627 98 680 114T778 158Q809 223 823 313T838 503V622Z" />
<glyph unicode="p" glyph-name="p" horiz-adv-x="1160" d="M183 953L30 987L50 1085L285 1107L343 929Q418 1019 505 1063T691 1107Q874 1107 969 993T1064 656V562Q1064 291 941 135T606 -22Q545 -22 486 -16T363 3V-302L516 -336L496 -435H50L30 -336L183 -302V953ZM884
622Q884 802 819 894T627 987Q564 987 494 952T363 858V125Q403 116 471 107T596 98Q657 98 716 112T827 158Q848 213 866 309T884 503V622Z" />
<glyph unicode="q" glyph-name="q" horiz-adv-x="1085" d="M791 116L781 120Q717 48 640 13T472 -22Q288 -22 194 88T100 409V492Q100 771 225 939T555 1107Q642 1107 757 1088T971 1043V-457L658 -435L638 -337L791 -303V116ZM280 453Q280 275 348 187T528 98Q600
98 672 136T791 225V959Q736 971 674 979T553 987Q489 987 430 967T334 919Q309 848 295 759T280 572V453Z" />
<glyph unicode="r" glyph-name="r" horiz-adv-x="885" d="M259 953L106 987L126 1085L361 1107L419 929Q467 1019 531 1063T682 1107Q723 1107 762 1096T831 1065L806 782H694L668 967Q649 975 623 975Q572 975 521 939T439 858V132L625 98L605 0H126L106 98L259
132V953Z" />
<glyph unicode="s" glyph-name="s" horiz-adv-x="970" d="M571 621Q779 515 834 440T890 271Q890 141 776 60T472 -22Q370 -22 281 -1T136 48L126 288L235 308L293 121Q332 109 379 104T474 98Q528 98 581 104T690 126Q700 147 705 173T710 225Q710 296 646 352T398
506Q232 593 175 662T118 820Q118 945 223 1026T521 1107Q611 1107 696 1089T842 1039L851 798L742 778L683 967Q643 978 598 982T515 987Q462 987 412 980T320 959Q311 943 305 918T298 865Q298 811 343 764T571 621Z" />
<glyph unicode="t" glyph-name="t" horiz-adv-x="742" d="M659 1085L679 986L369 954V309Q369 203 400 151T528 98Q560 98 599 108T680 137V43Q634 13 575 -4T455 -22Q315 -22 252 50T189 270V954L28 986L48 1085H189L262 1378L369 1358V1085H659Z" />
<glyph unicode="u" glyph-name="u" horiz-adv-x="1262" d="M371 403Q371 247 426 173T613 98Q685 98 756 132T883 225V953L700 987L720 1085L1063 1107V132L1216 98L1196 0L961 -22L903 156Q822 61 732 20T532 -22Q364 -22 278 73T191 359V953L38 987L58 1085L371
1107V403Z" />
<glyph unicode="v" glyph-name="v" horiz-adv-x="1062" d="M1076 987L981 968L642 0H425L83 968L-12 987L8 1085H378L398 987L269 967L547 132H563L841 967L712 987L732 1085H1056L1076 987Z" />
<glyph unicode="w" glyph-name="w" horiz-adv-x="1733" d="M1747 987L1653 969L1358 0H1146L888 828H872L621 0H409L86 968L-10 987L10 1085H381L401 987L270 967L526 159H542L810 1085H993L1266 159H1282L1515 967L1381 987L1401 1085H1727L1747 987Z" />
<glyph unicode="x" glyph-name="x" horiz-adv-x="1086" d="M24 98L116 114L449 543L124 971L38 987L58 1085H408L428 987L335 972L569 666H585L813 971L719 987L739 1085H1042L1062 987L974 971L649 559L988 114L1080 98L1060 0H703L683 98L776 113L530 437H514L275
113L371 98L351 0H44L24 98Z" />
<glyph unicode="y" glyph-name="y" horiz-adv-x="1106" d="M777 1085H1102L1122 987L1025 968L668 2Q578 -247 491 -352T265 -457Q206 -457 146 -442T48 -410L84 -279Q139 -299 213 -314T354 -330Q392 -304 428 -255T494 -125L87 968L-10 987L10 1085H380L400
987L275 968L570 132H586L882 968L757 987L777 1085Z" />
<glyph unicode="z" glyph-name="z" horiz-adv-x="967" d="M741 110L793 300L897 289V0H92V95L685 963L679 975H279L227 785L123 796V1085H905V1002L304 122L310 110H741Z" />
<glyph unicode="{" glyph-name="braceleft" horiz-adv-x="814" d="M150 658H246Q307 658 331 682T356 768V1397Q356 1457 377 1508T435 1597T524 1656T636 1677H714V1581H693Q602 1581 563 1542T523 1411V828Q523 766 513 725T486 660T447 625T403 615V605Q425
605 447 595T485 561T512 495T523 392V-191Q523 -282 562 -321T693 -361H714V-457H636Q576 -457 525 -436T436 -378T377 -289T356 -177V452Q356 513 332 537T246 562H150V658Z" />
<glyph unicode="|" glyph-name="bar" horiz-adv-x="658" d="M270 1670H388V-537H270V1670Z" />
<glyph unicode="}" glyph-name="braceright" horiz-adv-x="814" d="M664 562H568Q507 562 483 538T458 452V-177Q458 -237 437 -288T379 -377T290 -436T178 -457H100V-361H121Q212 -361 251 -322T291 -191V392Q291 454 301 495T328 560T366 595T411 605V615Q388
615 367 625T329 659T302 725T291 828V1411Q291 1502 252 1541T121 1581H100V1677H178Q238 1677 289 1656T378 1598T437 1509T458 1397V768Q458 707 482 683T568 658H664V562Z" />
<glyph unicode="~" glyph-name="asciitilde" horiz-adv-x="1211" d="M140 549Q140 605 158 648T209 720T285 763T380 778Q416 778 460 768T552 744T646 712T734 681T809 656T861 646Q880 646 898 653T931 676T955 713T964 766L1081 776V729Q1081 676 1064 634T1017
562T945 516T853 500Q820 500 776 510T683 534T584 566T489 597T409 622T356 632Q336 632 317 628T282 613T258 583T249 534L140 524V549Z" />
<glyph unicode="&#xa0;" glyph-name="uni00A0" horiz-adv-x="550" />
<glyph unicode="&#xa1;" glyph-name="exclamdown" horiz-adv-x="572" d="M412 1006Q412 971 404 940T383 886T351 848T311 834Q275 834 244 842T190 864T153 897T140 937Q140 971 148 1001T169 1055T202 1093T242 1107Q278 1107 309 1099T363 1078T399 1046T412
1006ZM378 -435L183 -457L163 -435L200 715H341L378 -435Z" />
<glyph unicode="&#xa2;" glyph-name="cent" horiz-adv-x="1024" d="M525 -20Q430 -15 352 12T216 91T128 219T96 399V492Q96 633 126 741T212 926T347 1046T525 1102V1353H643V1106Q711 1103 765 1093T858 1072Q903 1059 937 1044V789L815 775L767 966Q752 970
734 974Q718 977 695 980T643 986V98Q703 100 758 111T856 137Q905 152 948 171V75Q911 52 864 34Q823 18 768 3T643 -19V-245H525V-20ZM276 443Q276 371 296 315T351 217T431 150T525 110V983Q480 978 445 969T386 950Q357 939 336 927Q319 882 306 825Q295 776
286 707T276 552V443Z" />
<glyph unicode="&#xa3;" glyph-name="sterling" horiz-adv-x="1101" d="M119 98L250 127Q259 155 266 188Q272 217 277 255T283 339Q283 368 281 395T273 452T261 513T243 585H130L110 674L210 702Q197 748 188 786T173 861T165 935T162 1015Q162 1087 186 1152T261
1266T394 1345T591 1375Q673 1375 738 1362T848 1333Q901 1315 941 1292V1015L835 1000L763 1229Q740 1236 712 1242Q687 1247 654 1251T578 1255Q534 1255 498 1249T435 1234Q404 1225 380 1214Q369 1192 361 1164Q353 1140 348 1106T342 1028Q342 947 353 872T387
714H823V585H422Q436 528 444 478T453 375Q453 322 446 277T431 199Q421 160 410 129H818L901 322L1005 300L980 0H139L119 98Z" />
<glyph unicode="&#xa4;" glyph-name="currency" horiz-adv-x="1271" d="M185 191L326 360Q288 408 267 465T245 588Q245 649 264 704T319 805L180 970L308 1077L446 912Q488 935 536 947T636 959Q687 959 734 947T824 913L962 1077L1091 968L953 804Q988 758 1007
703T1027 588Q1027 523 1005 465T944 359L1088 189L960 82L812 257Q730 217 636 217Q588 217 544 227T460 256L314 82L185 191ZM421 588Q421 532 438 490T484 419T552 376T636 361Q680 361 719 375T787 419T833 490T850 588Q850 643 833 685T787 757T719 800T636
815Q592 815 553 801T484 757T438 686T421 588Z" />
<glyph unicode="&#xa5;" glyph-name="yen" horiz-adv-x="1122" d="M187 635H441L62 1226L-52 1254L-32 1353H378L398 1254L267 1226L590 722H600L906 1226L782 1254L802 1353H1154L1174 1254L1063 1226L703 635H950V508H668V380H950V253H668V132L820 98L800 0H345L325
98L478 132V253H187V380H478V508H187V635Z" />
<glyph unicode="&#xa6;" glyph-name="brokenbar" horiz-adv-x="658" d="M270 320H388V-537H270V320ZM270 1670H388V813H270V1670Z" />
<glyph unicode="&#xa7;" glyph-name="section" horiz-adv-x="1169" d="M696 980Q780 935 847 893T961 804T1034 704T1059 583Q1059 496 1018 434T911 327Q950 288 970 244T990 144Q990 73 963 22T884 -63T756 -112T581 -128Q496 -128 429 -118T314 -93Q259 -78
216 -58L238 202H348L373 15Q396 8 427 3Q453 -2 490 -5T574 -8Q626 -8 669 -4T744 6Q781 12 810 21Q816 33 820 48Q824 61 827 79T830 119Q830 151 809 181T742 246T623 322T447 415Q372 453 313 490T214 570T152 663T130 777Q130 866 171 931T275 1044Q243 1078
226 1116T209 1203Q209 1261 229 1312T296 1401T421 1461T617 1484Q697 1484 759 1474T865 1450Q915 1435 953 1416L929 1156H818L794 1343Q772 1349 745 1353Q722 1357 691 1360T621 1364Q567 1364 525 1360T453 1351Q418 1345 391 1338Q384 1327 380 1312Q375
1299 372 1282T369 1242Q369 1210 386 1184T441 1128T542 1064T696 980ZM565 545Q643 503 707 468T821 399Q859 431 879 471T899 562Q899 603 881 636T823 702T724 769T579 850Q514 885 460 915T360 975Q322 940 306 903T290 812Q290 774 304 743T350 682T435 619T565
545Z" />
<glyph unicode="&#xa8;" glyph-name="dieresis" horiz-adv-x="1013" d="M200 1384Q200 1409 207 1432T226 1472T255 1500T289 1510Q315 1510 338 1503T377 1484T403 1455T413 1420Q413 1395 406 1373T387 1333T359 1305T325 1295Q299 1295 276 1302T236 1321T210
1350T200 1384ZM600 1384Q600 1409 607 1432T626 1472T654 1500T688 1510Q714 1510 737 1503T777 1484T803 1455T813 1420Q813 1395 806 1373T787 1333T758 1305T724 1295Q698 1295 675 1302T636 1321T610 1350T600 1384Z" />
<glyph unicode="&#xa9;" glyph-name="copyright" horiz-adv-x="1467" d="M455 919Q455 1016 476 1088T536 1209T630 1281T753 1305Q797 1305 832 1299T892 1286Q921 1277 944 1267L956 1074L888 1060L844 1197Q833 1200 819 1203Q807 1205 790 1207T752 1209Q723
1209 700 1205T661 1195Q642 1189 628 1181Q621 1154 616 1120Q611 1091 608 1050T605 957V889Q605 838 619 801T657 740T709 704T767 692Q803 692 836 699T895 715Q925 725 952 738V654Q924 637 891 624Q862 613 823 604T735 595Q674 595 623 611T534 659T476
742T455 861V919ZM259 949Q259 850 296 764T397 613T548 511T734 474Q833 474 919 511T1070 612T1172 763T1209 949Q1209 1048 1172 1134T1071 1285T920 1387T734 1424Q635 1424 549 1387T398 1286T296 1135T259 949ZM120 949Q120 1076 168 1188T300 1383T495 1514T734
1562Q861 1562 973 1514T1168 1383T1299 1188T1347 949Q1347 822 1299 710T1168 515T973 384T734 335Q649 335 571 357T424 419T300 515T204 639T142 785T120 949Z" />
<glyph unicode="&#xaa;" glyph-name="ordfeminine" horiz-adv-x="627" d="M495 907L587 890L577 821L409 810L382 892Q373 881 357 867T316 841T262 819T194 810Q122 810 81 843T40 940Q40 1036 118 1087T370 1139V1172Q370 1197 367 1216T359 1250Q355 1266 349
1279Q329 1286 311 1290T257 1295Q240 1295 225 1294T198 1291Q184 1289 173 1287L143 1171L74 1176V1348Q97 1355 126 1361Q151 1366 184 1370T260 1375Q371 1375 433 1333T495 1189V907ZM370 1059Q319 1059 283 1053T222 1040Q194 1031 176 1021Q173 1014 170
1004Q165 986 165 958Q165 921 187 906T244 890Q269 890 292 900T332 922Q352 936 370 954V1059Z" />
<glyph unicode="&#xab;" glyph-name="guillemotleft" horiz-adv-x="1063" d="M545 115L150 536V596L545 1017H630V995L330 576V556L630 137V115H545ZM808 159L542 548V584L808 973H893V951L726 566L893 181V159H808Z" />
<glyph unicode="&#xac;" glyph-name="logicalnot" horiz-adv-x="1193" d="M140 769H1033V305H886V622H140V769Z" />
<glyph unicode="&#xad;" glyph-name="uni00AD" horiz-adv-x="969" d="M230 665L819 706L789 557L200 516L230 665Z" />
<glyph unicode="&#xae;" glyph-name="registered" horiz-adv-x="1467" d="M120 949Q120 1076 168 1188T300 1383T495 1514T734 1562Q861 1562 973 1514T1168 1383T1299 1188T1347 949Q1347 822 1299 710T1168 515T973 384T734 335Q649 335 571 357T424 419T300
515T204 639T142 785T120 949ZM259 949Q259 850 296 764T397 613T548 511T734 474Q833 474 919 511T1070 612T1172 763T1209 949Q1209 1048 1172 1134T1071 1285T920 1387T734 1424Q635 1424 549 1387T398 1286T296 1135T259 949ZM547 1199L477 1216L486 1271H747Q850
1271 903 1231T956 1103Q956 1036 926 995T852 927V921L976 714L1048 700L1039 645H883L728 911H669V715L739 700L730 645H486L477 700L547 715V1199ZM669 1187V995H725Q747 995 764 997T793 1003Q807 1007 818 1012Q821 1022 825 1035Q827 1046 829 1061T832 1094Q832
1132 805 1159T715 1187H669Z" />
<glyph unicode="&#xaf;" glyph-name="overscore" horiz-adv-x="1030" d="M169 1473H880L860 1353H150L169 1473Z" />
<glyph unicode="&#xb0;" glyph-name="degree" horiz-adv-x="614" d="M80 1305Q80 1358 100 1405T155 1487T237 1542T337 1562Q390 1562 437 1542T519 1487T574 1405T594 1305Q594 1252 574 1205T519 1123T437 1068T337 1048Q284 1048 237 1068T155 1123T100 1205T80
1305ZM209 1305Q209 1269 219 1242T246 1195T287 1167T337 1157Q364 1157 387 1166T427 1195T455 1241T465 1305Q465 1341 455 1368T428 1415T387 1443T337 1453Q310 1453 287 1444T247 1415T219 1369T209 1305Z" />
<glyph unicode="&#xb1;" glyph-name="plusminus" horiz-adv-x="1063" d="M605 1085V767H903V620H605V302H458V620H160V767H458V1085H605ZM187 147H880V0H187V147Z" />
<glyph unicode="&#xb2;" glyph-name="twosuperior" horiz-adv-x="581" d="M375 1589Q375 1617 367 1636T344 1666T310 1683T268 1688Q248 1688 231 1685T199 1676Q183 1671 169 1664L141 1554L66 1559V1715Q95 1731 131 1743Q162 1754 203 1763T292 1772Q339 1772
378 1762T446 1730T489 1678T505 1603Q505 1556 483 1508T422 1408T335 1304T232 1195L234 1190H412L453 1296L525 1285L514 1085H48V1167Q118 1237 178 1297T282 1410T350 1506T375 1589Z" />
<glyph unicode="&#xb3;" glyph-name="threesuperior" horiz-adv-x="548" d="M244 1073Q203 1073 168 1079T104 1093Q71 1102 44 1114V1279L117 1285L143 1179Q157 1172 175 1168Q190 1164 209 1161T250 1158Q273 1158 294 1165T331 1187T357 1222T367 1273Q367
1307 357 1331T330 1370T290 1392T238 1399H194V1483H240Q292 1483 317 1511T343 1591Q343 1646 315 1666T241 1687Q224 1687 209 1685T182 1679Q168 1675 156 1671L130 1565L57 1571V1735Q82 1745 114 1753Q140 1760 176 1766T255 1772Q364 1772 418 1730T473
1610Q473 1574 463 1548T436 1502T402 1469T367 1447Q391 1439 414 1426T455 1393T485 1347T496 1287Q496 1233 477 1193T425 1126T345 1086T244 1073Z" />
<glyph unicode="&#xb4;" glyph-name="acute" horiz-adv-x="1052" d="M397 1307L600 1670L782 1660V1594L502 1265L397 1275V1307Z" />
<glyph unicode="&#xb5;" glyph-name="uni00B5" horiz-adv-x="1254" d="M1055 132L1208 98L1188 0Q1169 -7 1149 -11Q1132 -16 1110 -19T1064 -22Q1026 -22 999 -6T951 37T918 94T895 156Q871 127 840 96T768 38T675 -5T557 -22Q512 -22 478 -14T417 8T373 37T344
67L334 61L383 -435L203 -457V953L50 987L70 1085L383 1107V403Q383 311 399 252T446 159T520 112T615 98Q672 98 719 117T802 161Q842 189 875 225V953L692 987L712 1085L1055 1107V132Z" />
<glyph unicode="&#xb6;" glyph-name="paragraph" horiz-adv-x="1152" d="M525 485Q441 485 363 509T224 584T127 715T90 908Q90 1020 123 1104T217 1243T359 1325T538 1353H1052L1072 1255L920 1221V128Q920 24 889 -56T808 -191T692 -274T559 -302Q495 -302 446
-295T362 -279Q322 -268 291 -255V-143Q320 -152 357 -159Q388 -165 430 -169T524 -174Q572 -174 610 -158T674 -106T715 -11T730 133V1224H590V485H525Z" />
<glyph unicode="&#xb7;" glyph-name="middot" horiz-adv-x="584" d="M180 654Q180 685 187 713T206 762T235 795T270 808Q303 808 331 801T379 782T412 752T424 716Q424 686 417 658T398 609T369 576T333 563Q301 563 273 570T225 589T192 618T180 654Z" />
<glyph unicode="&#xb8;" glyph-name="cedilla" horiz-adv-x="818" d="M475 37L426 -98Q468 -109 503 -123T563 -157T603 -206T618 -275Q618 -315 603 -348T558 -406T486 -443T390 -457Q350 -457 316 -450T256 -434Q226 -423 200 -410V-317Q227 -328 257 -337Q283
-345 315 -351T380 -357Q400 -357 415 -355T442 -351Q454 -348 463 -344Q466 -337 470 -327Q472 -319 474 -308T477 -285Q477 -246 439 -221T316 -176L282 -121L343 37H475Z" />
<glyph unicode="&#xb9;" glyph-name="onesuperior" horiz-adv-x="446" d="M66 1154L168 1171V1658H55L50 1705L232 1762H298V1171L399 1154L389 1085H76L66 1154Z" />
<glyph unicode="&#xba;" glyph-name="ordmasculine" horiz-adv-x="581" d="M286 810Q162 810 101 870T40 1031V1077Q40 1150 59 1205T111 1298T191 1355T291 1375Q346 1375 392 1362T471 1321T522 1250T541 1149V1102Q541 1041 525 988T477 895T398 833T286 810ZM416
1132Q416 1179 404 1210T373 1260T330 1287T281 1295Q263 1295 247 1290T220 1280Q206 1273 195 1265Q186 1249 180 1225Q174 1205 170 1175T165 1107V1048Q165 1006 176 976T207 927T251 899T301 890Q318 890 333 894T360 905Q374 911 386 920Q394 935 401 957Q406
976 411 1004T416 1073V1132Z" />
<glyph unicode="&#xbb;" glyph-name="guillemotright" horiz-adv-x="1063" d="M433 115V137L733 556V576L433 995V1017H518L913 596V536L518 115H433ZM170 159V181L337 566L170 951V973H255L521 584V548L255 159H170Z" />
<glyph unicode="&#xbc;" glyph-name="onequarter" horiz-adv-x="1374" d="M106 745L208 762V1249H95L90 1296L272 1353H338V762L439 745L429 676H116L106 745ZM1103 1353H1208V1333L229 0H124V20L1103 1353ZM920 69L1036 86V161H772L760 224L1030 677H1157L892
246H1036V394H1166V246H1252L1264 176L1166 159V86L1262 69L1252 0H930L920 69Z" />
<glyph unicode="&#xbd;" glyph-name="onehalf" horiz-adv-x="1433" d="M126 745L228 762V1249H115L110 1296L292 1353H358V762L459 745L449 676H136L126 745ZM1123 1353H1228V1333L249 0H144V20L1123 1353ZM1173 504Q1173 532 1165 551T1142 581T1108 598T1066
603Q1046 603 1029 600T997 591Q981 586 967 579L939 469L864 474V630Q893 646 929 658Q960 669 1001 678T1090 687Q1137 687 1176 677T1244 645T1287 593T1303 518Q1303 471 1281 423T1220 323T1133 219T1030 110L1032 105H1210L1251 211L1323 200L1312 0H846V82Q916
152 976 212T1080 325T1148 421T1173 504Z" />
<glyph unicode="&#xbe;" glyph-name="threequarters" horiz-adv-x="1423" d="M310 676Q269 676 234 682T170 696Q137 705 110 717V882L183 888L209 782Q223 775 241 771Q256 767 275 764T316 761Q339 761 360 768T397 790T423 825T433 876Q433 910 423 934T396
973T356 995T304 1002H260V1086H306Q358 1086 383 1114T409 1194Q409 1249 381 1269T307 1290Q290 1290 275 1288T248 1282Q234 1278 222 1274L196 1168L123 1174V1338Q148 1348 180 1356Q206 1363 242 1369T321 1375Q430 1375 484 1333T539 1213Q539 1177 529
1151T502 1105T468 1072T433 1050Q457 1042 480 1029T521 996T551 950T562 890Q562 836 543 796T491 729T411 689T310 676ZM1152 1353H1257V1333L278 0H173V20L1152 1353ZM969 69L1085 86V161H821L809 224L1079 677H1206L941 246H1085V394H1215V246H1301L1313 176L1215
159V86L1311 69L1301 0H979L969 69Z" />
<glyph unicode="&#xbf;" glyph-name="questiondown" horiz-adv-x="979" d="M473 327Q535 383 563 427T592 515Q592 553 568 571T500 589Q471 589 446 584T402 573Q380 566 361 558V659Q383 673 411 684Q435 693 468 701T544 709Q589 709 630 697T702 661T753 601T772
516Q772 477 763 441T733 369T679 293T596 208L444 68Q399 26 368 -8T317 -72T289 -130T280 -188Q280 -219 294 -246T338 -293T417 -325T536 -337Q580 -337 613 -333T669 -323Q695 -317 716 -309L787 -80L899 -97V-374Q853 -398 793 -416Q742 -432 670 -444T509
-457Q311 -457 206 -388T100 -184Q100 -132 113 -87T153 2T222 91T322 189L473 327ZM723 1006Q723 971 715 940T694 886T662 848T622 834Q586 834 555 842T501 864T464 897T451 937Q451 971 459 1001T480 1055T513 1093T553 1107Q589 1107 620 1099T674 1078T710
1046T723 1006Z" />
<glyph unicode="&#xc0;" glyph-name="Agrave" horiz-adv-x="1218" d="M-8 98L100 127L540 1353H689L1118 127L1226 98L1206 0H821L801 98L929 127L835 406H344L248 127L376 98L356 0H12L-8 98ZM389 535H791L597 1104H587L389 535ZM794 1471L679 1460L304 1708V1774L496
1784L794 1503V1471Z" />
<glyph unicode="&#xc1;" glyph-name="Aacute" horiz-adv-x="1218" d="M-8 98L100 127L540 1353H689L1118 127L1226 98L1206 0H821L801 98L929 127L835 406H344L248 127L376 98L356 0H12L-8 98ZM389 535H791L597 1104H587L389 535ZM472 1503L770 1784L962 1774V1708L587
1460L472 1471V1503Z" />
<glyph unicode="&#xc2;" glyph-name="Acircumflex" horiz-adv-x="1218" d="M-8 98L100 127L540 1353H689L1118 127L1226 98L1206 0H821L801 98L929 127L835 406H344L248 127L376 98L356 0H12L-8 98ZM389 535H791L597 1104H587L389 535ZM970 1470L845 1460L607
1652L376 1460L281 1470V1502L564 1794L697 1784L970 1502V1470Z" />
<glyph unicode="&#xc3;" glyph-name="Atilde" horiz-adv-x="1218" d="M-8 98L100 127L540 1353H689L1118 127L1226 98L1206 0H821L801 98L929 127L835 406H344L248 127L376 98L356 0H12L-8 98ZM389 535H791L597 1104H587L389 535ZM214 1520Q214 1633 272 1691T434
1749Q488 1749 543 1729T649 1683T743 1638T815 1617Q853 1617 875 1646T898 1737L1015 1747V1700Q1015 1594 962 1533T807 1471Q758 1471 701 1491T588 1537T485 1582T410 1603Q390 1603 374 1599T346 1584T329 1554T323 1505L214 1495V1520Z" />
<glyph unicode="&#xc4;" glyph-name="Adieresis" horiz-adv-x="1218" d="M-8 98L100 127L540 1353H689L1118 127L1226 98L1206 0H821L801 98L929 127L835 406H344L248 127L376 98L356 0H12L-8 98ZM389 535H791L597 1104H587L389 535ZM277 1581Q277 1606 284 1629T303
1669T332 1697T366 1707Q392 1707 415 1700T454 1681T480 1653T490 1617Q490 1592 483 1570T464 1530T436 1502T402 1492Q376 1492 353 1499T313 1518T287 1547T277 1581ZM737 1581Q737 1606 744 1629T763 1669T791 1697T825 1707Q851 1707 874 1700T914 1681T940
1653T950 1617Q950 1592 943 1570T924 1530T895 1502T861 1492Q835 1492 812 1499T773 1518T747 1547T737 1581Z" />
<glyph unicode="&#xc5;" glyph-name="Aring" horiz-adv-x="1218" d="M-8 98L100 127L540 1353H689L1118 127L1226 98L1206 0H821L801 98L929 127L835 406H344L248 127L376 98L356 0H12L-8 98ZM389 535H791L597 1104H587L389 535ZM431 1570Q431 1622 447 1662T490
1729T553 1770T630 1784Q666 1784 698 1775T755 1748T794 1701T808 1634Q808 1579 793 1539T750 1472T687 1433T610 1420Q573 1420 541 1429T484 1457T445 1504T431 1570ZM531 1602Q531 1554 557 1526T620 1498Q637 1498 651 1500T677 1507Q689 1511 700 1517Q702
1527 704 1540Q706 1551 707 1566T709 1602Q709 1651 683 1679T620 1707Q603 1707 589 1704T564 1697Q551 1693 540 1688Q537 1681 535 1670Q533 1660 532 1644T531 1602Z" />
<glyph unicode="&#xc6;" glyph-name="AE" horiz-adv-x="1782" d="M-12 98L118 129L756 1353H1624L1648 1053L1545 1031L1462 1224H1010V772H1367L1401 894L1500 874V540L1401 520L1367 643H1010V129H1491L1574 322L1678 299L1654 0H687L667 98L820 132V406H428L284
125L392 98L372 0H8L-12 98ZM820 535V1169L494 535H820Z" />
<glyph unicode="&#xc7;" glyph-name="Ccedilla" horiz-adv-x="1176" d="M100 604Q100 985 254 1180T705 1375Q800 1375 897 1360T1068 1316L1089 1046L984 1024L901 1219Q863 1231 804 1238T678 1246Q592 1246 515 1223T379 1158Q339 1066 315 938T290 683V550Q290
336 407 222T723 107Q817 107 915 136T1092 211V105Q999 45 886 11Q803 -13 721 -19L693 -98Q735 -109 770 -123T830 -157T870 -206T885 -275Q885 -315 870 -348T825 -406T753 -443T657 -457Q617 -457 583 -450T523 -434Q493 -423 467 -410V-317Q494 -328 524 -337Q550
-345 582 -351T647 -357Q667 -357 682 -355T709 -351Q721 -348 730 -344Q733 -337 737 -327Q739 -319 741 -308T744 -285Q744 -246 706 -221T583 -176L549 -121L588 -19Q365 -3 242 112Q100 246 100 515V604Z" />
<glyph unicode="&#xc8;" glyph-name="Egrave" horiz-adv-x="1191" d="M419 643V129H900L983 322L1087 299L1063 0H96L76 98L229 132V1221L76 1255L96 1353H1033L1057 1053L954 1031L871 1224H419V772H776L810 894L909 874V540L810 520L776 643H419ZM769 1471L654
1460L279 1708V1774L471 1784L769 1503V1471Z" />
<glyph unicode="&#xc9;" glyph-name="Eacute" horiz-adv-x="1191" d="M419 643V129H900L983 322L1087 299L1063 0H96L76 98L229 132V1221L76 1255L96 1353H1033L1057 1053L954 1031L871 1224H419V772H776L810 894L909 874V540L810 520L776 643H419ZM447 1503L745
1784L937 1774V1708L562 1460L447 1471V1503Z" />
<glyph unicode="&#xca;" glyph-name="Ecircumflex" horiz-adv-x="1191" d="M419 643V129H900L983 322L1087 299L1063 0H96L76 98L229 132V1221L76 1255L96 1353H1033L1057 1053L954 1031L871 1224H419V772H776L810 894L909 874V540L810 520L776 643H419ZM945 1470L820
1460L582 1652L351 1460L256 1470V1502L539 1794L672 1784L945 1502V1470Z" />
<glyph unicode="&#xcb;" glyph-name="Edieresis" horiz-adv-x="1191" d="M419 643V129H900L983 322L1087 299L1063 0H96L76 98L229 132V1221L76 1255L96 1353H1033L1057 1053L954 1031L871 1224H419V772H776L810 894L909 874V540L810 520L776 643H419ZM252 1581Q252
1606 259 1629T278 1669T307 1697T341 1707Q367 1707 390 1700T429 1681T455 1653T465 1617Q465 1592 458 1570T439 1530T411 1502T377 1492Q351 1492 328 1499T288 1518T262 1547T252 1581ZM712 1581Q712 1606 719 1629T738 1669T766 1697T800 1707Q826 1707 849
1700T889 1681T915 1653T925 1617Q925 1592 918 1570T899 1530T870 1502T836 1492Q810 1492 787 1499T748 1518T722 1547T712 1581Z" />
<glyph unicode="&#xcc;" glyph-name="Igrave" horiz-adv-x="643" d="M225 1221L72 1255L92 1353H547L567 1255L415 1221V132L567 98L547 0H92L72 98L225 132V1221ZM755 1471L640 1460L265 1708V1774L457 1784L755 1503V1471Z" />
<glyph unicode="&#xcd;" glyph-name="Iacute" horiz-adv-x="643" d="M225 1221L72 1255L92 1353H547L567 1255L415 1221V132L567 98L547 0H92L72 98L225 132V1221ZM176 1503L474 1784L666 1774V1708L291 1460L176 1471V1503Z" />
<glyph unicode="&#xce;" glyph-name="Icircumflex" horiz-adv-x="643" d="M225 1221L72 1255L92 1353H547L567 1255L415 1221V132L567 98L547 0H92L72 98L225 132V1221ZM674 1470L549 1460L311 1652L80 1460L-15 1470V1502L268 1794L401 1784L674 1502V1470Z" />
<glyph unicode="&#xcf;" glyph-name="Idieresis" horiz-adv-x="643" d="M225 1221L72 1255L92 1353H547L567 1255L415 1221V132L567 98L547 0H92L72 98L225 132V1221ZM-19 1581Q-19 1606 -12 1629T7 1669T36 1697T70 1707Q96 1707 119 1700T158 1681T184 1653T194
1617Q194 1592 187 1570T168 1530T140 1502T106 1492Q80 1492 57 1499T17 1518T-9 1547T-19 1581ZM441 1581Q441 1606 448 1629T467 1669T495 1697T529 1707Q555 1707 578 1700T618 1681T644 1653T654 1617Q654 1592 647 1570T628 1530T599 1502T565 1492Q539 1492
516 1499T477 1518T451 1547T441 1581Z" />
<glyph unicode="&#xd0;" glyph-name="Eth" horiz-adv-x="1362" d="M78 758H231V1221L78 1255L98 1353H638Q792 1353 906 1314T1096 1199T1209 1014T1246 765V687Q1246 530 1207 403T1092 187T909 49T661 0H98L78 98L231 132V629H78V758ZM421 1224V758H711V629H421V129H632Q692
129 743 136T831 153Q874 164 910 178Q950 230 983 298Q1010 356 1033 437T1056 622V716Q1056 834 1028 928T944 1088T801 1189T599 1224H421Z" />
<glyph unicode="&#xd1;" glyph-name="Ntilde" horiz-adv-x="1532" d="M225 1221L72 1255L92 1353H512L1167 136H1183V1221L1029 1255L1049 1353H1456L1476 1255L1324 1221V0H1037L381 1218H365V132L517 98L497 0H92L72 98L225 132V1221ZM374 1520Q374 1633 432
1691T594 1749Q648 1749 703 1729T809 1683T903 1638T975 1617Q1013 1617 1035 1646T1058 1737L1175 1747V1700Q1175 1594 1122 1533T967 1471Q918 1471 861 1491T748 1537T645 1582T570 1603Q550 1603 534 1599T506 1584T489 1554T483 1505L374 1495V1520Z" />
<glyph unicode="&#xd2;" glyph-name="Ograve" horiz-adv-x="1345" d="M663 -22Q384 -22 243 115T102 525V604Q102 993 250 1184T683 1375Q961 1375 1102 1239T1243 827V749Q1243 372 1099 175T663 -22ZM1053 783Q1053 1019 949 1132T653 1246Q564 1246 485 1219T361
1158Q331 1066 312 952T292 703V570Q292 349 404 228T693 107Q781 107 858 133T985 196Q1017 296 1035 416T1053 650V783ZM844 1471L729 1460L354 1708V1774L546 1784L844 1503V1471Z" />
<glyph unicode="&#xd3;" glyph-name="Oacute" horiz-adv-x="1345" d="M663 -22Q384 -22 243 115T102 525V604Q102 993 250 1184T683 1375Q961 1375 1102 1239T1243 827V749Q1243 372 1099 175T663 -22ZM1053 783Q1053 1019 949 1132T653 1246Q564 1246 485 1219T361
1158Q331 1066 312 952T292 703V570Q292 349 404 228T693 107Q781 107 858 133T985 196Q1017 296 1035 416T1053 650V783ZM522 1503L820 1784L1012 1774V1708L637 1460L522 1471V1503Z" />
<glyph unicode="&#xd4;" glyph-name="Ocircumflex" horiz-adv-x="1345" d="M663 -22Q384 -22 243 115T102 525V604Q102 993 250 1184T683 1375Q961 1375 1102 1239T1243 827V749Q1243 372 1099 175T663 -22ZM1053 783Q1053 1019 949 1132T653 1246Q564 1246 485
1219T361 1158Q331 1066 312 952T292 703V570Q292 349 404 228T693 107Q781 107 858 133T985 196Q1017 296 1035 416T1053 650V783ZM1020 1470L895 1460L657 1652L426 1460L331 1470V1502L614 1794L747 1784L1020 1502V1470Z" />
<glyph unicode="&#xd5;" glyph-name="Otilde" horiz-adv-x="1345" d="M663 -22Q384 -22 243 115T102 525V604Q102 993 250 1184T683 1375Q961 1375 1102 1239T1243 827V749Q1243 372 1099 175T663 -22ZM1053 783Q1053 1019 949 1132T653 1246Q564 1246 485 1219T361
1158Q331 1066 312 952T292 703V570Q292 349 404 228T693 107Q781 107 858 133T985 196Q1017 296 1035 416T1053 650V783ZM253 1520Q253 1633 311 1691T473 1749Q527 1749 582 1729T688 1683T782 1638T854 1617Q892 1617 914 1646T937 1737L1054 1747V1700Q1054
1594 1001 1533T846 1471Q797 1471 740 1491T627 1537T524 1582T449 1603Q429 1603 413 1599T385 1584T368 1554T362 1505L253 1495V1520Z" />
<glyph unicode="&#xd6;" glyph-name="Odieresis" horiz-adv-x="1345" d="M663 -22Q384 -22 243 115T102 525V604Q102 993 250 1184T683 1375Q961 1375 1102 1239T1243 827V749Q1243 372 1099 175T663 -22ZM1053 783Q1053 1019 949 1132T653 1246Q564 1246 485
1219T361 1158Q331 1066 312 952T292 703V570Q292 349 404 228T693 107Q781 107 858 133T985 196Q1017 296 1035 416T1053 650V783ZM327 1581Q327 1606 334 1629T353 1669T382 1697T416 1707Q442 1707 465 1700T504 1681T530 1653T540 1617Q540 1592 533 1570T514
1530T486 1502T452 1492Q426 1492 403 1499T363 1518T337 1547T327 1581ZM787 1581Q787 1606 794 1629T813 1669T841 1697T875 1707Q901 1707 924 1700T964 1681T990 1653T1000 1617Q1000 1592 993 1570T974 1530T945 1502T911 1492Q885 1492 862 1499T823 1518T797
1547T787 1581Z" />
<glyph unicode="&#xd7;" glyph-name="multiply" horiz-adv-x="1021" d="M264 944L510 697L757 944L861 840L614 593L861 347L757 243L510 489L264 243L160 347L406 593L160 840L264 944Z" />
<glyph unicode="&#xd8;" glyph-name="Oslash" horiz-adv-x="1345" d="M663 -22Q596 -22 537 -14L470 -230H330V-210L401 18Q307 52 243 115Q102 253 102 525V604Q102 993 250 1184T683 1375Q758 1375 823 1365L878 1540H1018V1520L958 1329Q1042 1296 1102 1238Q1243
1102 1243 827V749Q1243 372 1099 175T663 -22ZM653 1246Q564 1246 485 1219T361 1158Q331 1066 312 952T292 703V570Q292 349 404 228Q427 203 453 183L781 1230Q723 1246 653 1246ZM1053 783Q1053 1019 948 1132Q930 1153 908 1169L580 121Q633 107 693 107Q781
107 858 133T985 196Q1017 296 1035 416T1053 650V783Z" />
<glyph unicode="&#xd9;" glyph-name="Ugrave" horiz-adv-x="1358" d="M360 546Q360 323 454 215T713 107Q792 107 861 130T971 183Q1005 245 1027 333T1049 521V1221L896 1255L916 1353H1322L1342 1255L1190 1221V544Q1190 253 1063 116T673 -22Q424 -22 297 102T170
491V1221L16 1255L36 1353H492L512 1255L360 1221V546ZM886 1471L771 1460L396 1708V1774L588 1784L886 1503V1471Z" />
<glyph unicode="&#xda;" glyph-name="Uacute" horiz-adv-x="1358" d="M360 546Q360 323 454 215T713 107Q792 107 861 130T971 183Q1005 245 1027 333T1049 521V1221L896 1255L916 1353H1322L1342 1255L1190 1221V544Q1190 253 1063 116T673 -22Q424 -22 297 102T170
491V1221L16 1255L36 1353H492L512 1255L360 1221V546ZM564 1503L862 1784L1054 1774V1708L679 1460L564 1471V1503Z" />
<glyph unicode="&#xdb;" glyph-name="Ucircumflex" horiz-adv-x="1358" d="M360 546Q360 323 454 215T713 107Q792 107 861 130T971 183Q1005 245 1027 333T1049 521V1221L896 1255L916 1353H1322L1342 1255L1190 1221V544Q1190 253 1063 116T673 -22Q424 -22
297 102T170 491V1221L16 1255L36 1353H492L512 1255L360 1221V546ZM1062 1470L937 1460L699 1652L468 1460L373 1470V1502L656 1794L789 1784L1062 1502V1470Z" />
<glyph unicode="&#xdc;" glyph-name="Udieresis" horiz-adv-x="1358" d="M360 546Q360 323 454 215T713 107Q792 107 861 130T971 183Q1005 245 1027 333T1049 521V1221L896 1255L916 1353H1322L1342 1255L1190 1221V544Q1190 253 1063 116T673 -22Q424 -22 297
102T170 491V1221L16 1255L36 1353H492L512 1255L360 1221V546ZM369 1581Q369 1606 376 1629T395 1669T424 1697T458 1707Q484 1707 507 1700T546 1681T572 1653T582 1617Q582 1592 575 1570T556 1530T528 1502T494 1492Q468 1492 445 1499T405 1518T379 1547T369
1581ZM829 1581Q829 1606 836 1629T855 1669T883 1697T917 1707Q943 1707 966 1700T1006 1681T1032 1653T1042 1617Q1042 1592 1035 1570T1016 1530T987 1502T953 1492Q927 1492 904 1499T865 1518T839 1547T829 1581Z" />
<glyph unicode="&#xdd;" glyph-name="Yacute" horiz-adv-x="1122" d="M478 578L62 1226L-52 1254L-32 1353H378L398 1254L266 1226L587 722H603L907 1226L782 1254L802 1353H1154L1174 1254L1063 1226L668 576V132L820 98L800 0H345L325 98L478 132V578ZM453 1503L751
1784L943 1774V1708L568 1460L453 1471V1503Z" />
<glyph unicode="&#xde;" glyph-name="Thorn" horiz-adv-x="1098" d="M225 1221L72 1255L92 1353H547L567 1255L415 1221V1072H583Q796 1072 908 994T1020 747Q1020 652 987 580T897 459T765 385T606 360H415V132L627 98L607 0H92L72 98L225 132V1221ZM415 943V489H565Q617
489 659 494T732 508Q767 516 795 527Q803 552 810 581Q816 606 821 638T826 707Q826 759 811 802T761 877T671 925T535 943H415Z" />
<glyph unicode="&#xdf;" glyph-name="germandbls" horiz-adv-x="1289" d="M259 953L96 987L116 1085H259V1149Q259 1244 285 1320T364 1450T498 1533T689 1562Q764 1562 830 1545T946 1490T1025 1391T1054 1240Q1054 1168 1037 1109T988 999T914 901T820 809Q847
793 876 774Q901 757 931 736T993 688Q1046 643 1085 601T1151 514T1191 421T1204 314Q1204 235 1178 173T1105 67T994 1T853 -22Q780 -22 723 -12T624 13Q576 28 540 48V279L651 289L697 121Q713 114 736 109Q756 104 784 101T850 98Q888 98 917 103T965 115Q987
122 1002 132Q1008 146 1013 164Q1017 180 1020 203T1024 259Q1024 296 1016 333T985 409T926 491T830 583Q794 613 759 638T694 683Q661 705 631 723V788Q692 842 737 893T813 996T859 1102T874 1215Q874 1333 819 1387T659 1442Q609 1442 572 1435T510 1418Q481
1407 460 1395Q453 1368 449 1329Q445 1296 442 1248T439 1135V0H126L106 98L259 132V953Z" />
<glyph unicode="&#xe0;" glyph-name="agrave" horiz-adv-x="1150" d="M939 132L1112 98L1092 0L837 -22L779 155Q701 60 612 19T419 -22Q279 -22 194 48T108 237Q108 420 270 513T759 607V702Q759 852 705 919T514 987Q482 987 441 983T364 972L304 760L206 770V1053Q266
1074 354 1090T533 1107Q738 1107 838 1017T939 735V132ZM759 487Q609 487 493 468T316 415Q304 387 296 351T288 275Q288 192 343 145T487 98Q562 98 635 135T759 225V487ZM655 1275L537 1265L247 1594V1660L422 1670L655 1307V1275Z" />
<glyph unicode="&#xe1;" glyph-name="aacute" horiz-adv-x="1150" d="M939 132L1112 98L1092 0L837 -22L779 155Q701 60 612 19T419 -22Q279 -22 194 48T108 237Q108 420 270 513T759 607V702Q759 852 705 919T514 987Q482 987 441 983T364 972L304 760L206 770V1053Q266
1074 354 1090T533 1107Q738 1107 838 1017T939 735V132ZM759 487Q609 487 493 468T316 415Q304 387 296 351T288 275Q288 192 343 145T487 98Q562 98 635 135T759 225V487ZM470 1307L673 1670L855 1660V1594L575 1265L470 1275V1307Z" />
<glyph unicode="&#xe2;" glyph-name="acircumflex" horiz-adv-x="1150" d="M939 132L1112 98L1092 0L837 -22L779 155Q701 60 612 19T419 -22Q279 -22 194 48T108 237Q108 420 270 513T759 607V702Q759 852 705 919T514 987Q482 987 441 983T364 972L304 760L206
770V1053Q266 1074 354 1090T533 1107Q738 1107 838 1017T939 735V132ZM759 487Q609 487 493 468T316 415Q304 387 296 351T288 275Q288 192 343 145T487 98Q562 98 635 135T759 225V487ZM852 1275L727 1265L534 1517L348 1265L253 1275V1307L486 1680L619 1670L852
1307V1275Z" />
<glyph unicode="&#xe3;" glyph-name="atilde" horiz-adv-x="1150" d="M939 132L1112 98L1092 0L837 -22L779 155Q701 60 612 19T419 -22Q279 -22 194 48T108 237Q108 420 270 513T759 607V702Q759 852 705 919T514 987Q482 987 441 983T364 972L304 760L206 770V1053Q266
1074 354 1090T533 1107Q738 1107 838 1017T939 735V132ZM759 487Q609 487 493 468T316 415Q304 387 296 351T288 275Q288 192 343 145T487 98Q562 98 635 135T759 225V487ZM150 1307Q150 1420 208 1478T370 1536Q424 1536 479 1516T585 1470T679 1425T751 1404Q789
1404 811 1433T834 1524L951 1534V1487Q951 1381 898 1320T743 1258Q694 1258 637 1278T524 1324T421 1369T346 1390Q326 1390 310 1386T282 1371T265 1341T259 1292L150 1282V1307Z" />
<glyph unicode="&#xe4;" glyph-name="adieresis" horiz-adv-x="1150" d="M939 132L1112 98L1092 0L837 -22L779 155Q701 60 612 19T419 -22Q279 -22 194 48T108 237Q108 420 270 513T759 607V702Q759 852 705 919T514 987Q482 987 441 983T364 972L304 760L206
770V1053Q266 1074 354 1090T533 1107Q738 1107 838 1017T939 735V132ZM759 487Q609 487 493 468T316 415Q304 387 296 351T288 275Q288 192 343 145T487 98Q562 98 635 135T759 225V487ZM232 1384Q232 1409 239 1432T258 1472T287 1500T321 1510Q347 1510 370
1503T409 1484T435 1455T445 1420Q445 1395 438 1373T419 1333T391 1305T357 1295Q331 1295 308 1302T268 1321T242 1350T232 1384ZM632 1384Q632 1409 639 1432T658 1472T686 1500T720 1510Q746 1510 769 1503T809 1484T835 1455T845 1420Q845 1395 838 1373T819
1333T790 1305T756 1295Q730 1295 707 1302T668 1321T642 1350T632 1384Z" />
<glyph unicode="&#xe5;" glyph-name="aring" horiz-adv-x="1150" d="M939 132L1112 98L1092 0L837 -22L779 155Q701 60 612 19T419 -22Q279 -22 194 48T108 237Q108 420 270 513T759 607V702Q759 852 705 919T514 987Q482 987 441 983T364 972L304 760L206 770V1053Q266
1074 354 1090T533 1107Q738 1107 838 1017T939 735V132ZM759 487Q609 487 493 468T316 415Q304 387 296 351T288 275Q288 192 343 145T487 98Q562 98 635 135T759 225V487ZM367 1436Q367 1495 384 1539T429 1612T496 1655T576 1670Q614 1670 648 1660T708 1630T749
1577T764 1500Q764 1438 748 1394T704 1321T637 1279T556 1265Q517 1265 483 1275T423 1306T382 1359T367 1436ZM472 1468Q472 1438 480 1414T501 1373T531 1347T566 1338Q583 1338 599 1340T626 1347Q639 1351 651 1357Q653 1368 655 1385Q657 1399 658 1420T660
1468Q660 1498 652 1522T631 1563T601 1589T566 1598Q552 1598 539 1595T514 1588Q502 1584 491 1579Q485 1569 481 1553Q477 1539 475 1518T472 1468Z" />
<glyph unicode="&#xe6;" glyph-name="ae" horiz-adv-x="1621" d="M98 237Q98 323 134 391T247 508T446 581T739 607V702Q739 760 732 807T717 887Q707 926 696 955Q658 969 610 978T493 987Q465 987 441 985T396 979Q373 975 354 972L294 760L196 770V1053Q233
1068 281 1080Q321 1090 376 1098T499 1107Q631 1107 721 1070T862 948Q922 1027 1006 1067T1194 1107Q1299 1107 1368 1078T1480 991T1539 846T1557 643V523H919V447Q919 348 948 282T1020 174T1115 116T1212 98Q1271 98 1323 108T1416 130Q1463 144 1504 163V67Q1461
41 1406 22Q1359 5 1295 -8T1152 -22Q1090 -22 1035 -11T933 25T849 87T786 178Q769 153 738 119T660 53T549 0T399 -22Q334 -22 279 -5T184 45T121 126T98 237ZM467 98Q524 98 574 117T662 162T726 212T760 246Q739 319 739 414V487Q616 487 534 476T400 451Q340
435 306 415Q298 398 292 377Q287 359 283 333T278 275Q278 227 294 194T336 139T397 108T467 98ZM979 927Q966 894 955 852Q945 815 936 763T922 643H1367Q1367 729 1357 793T1323 901T1261 965T1166 987Q1124 987 1090 978T1031 957Q1002 944 979 927Z" />
<glyph unicode="&#xe7;" glyph-name="ccedilla" horiz-adv-x="972" d="M96 492Q96 788 222 947T572 1107Q648 1107 724 1092T877 1044L896 810L786 787L717 966Q683 976 647 981T569 987Q507 987 448 972T336 927Q314 867 295 768T276 552V443Q276 283 369 191T593
98Q665 98 738 116T888 171V75Q819 32 729 5Q669 -13 606 -19L578 -98Q620 -109 655 -123T715 -157T755 -206T770 -275Q770 -315 755 -348T710 -406T638 -443T542 -457Q502 -457 468 -450T408 -434Q378 -423 352 -410V-317Q379 -328 409 -337Q435 -345 467 -351T532
-357Q552 -357 567 -355T594 -351Q606 -348 615 -344Q618 -337 622 -327Q624 -319 626 -308T629 -285Q629 -246 591 -221T468 -176L434 -121L473 -18Q312 -3 214 86Q96 195 96 399V492Z" />
<glyph unicode="&#xe8;" glyph-name="egrave" horiz-adv-x="1034" d="M276 523V447Q276 279 368 189T589 98Q672 98 752 116T901 163V67Q814 21 719 0T529 -22Q323 -22 210 90T96 414V497Q96 784 223 945T571 1107Q774 1107 864 1004T954 643V523H276ZM336 927Q314
871 299 791T279 643H764Q764 825 712 906T543 987Q484 987 427 969T336 927ZM677 1275L559 1265L269 1594V1660L444 1670L677 1307V1275Z" />
<glyph unicode="&#xe9;" glyph-name="eacute" horiz-adv-x="1034" d="M276 523V447Q276 279 368 189T589 98Q672 98 752 116T901 163V67Q814 21 719 0T529 -22Q323 -22 210 90T96 414V497Q96 784 223 945T571 1107Q774 1107 864 1004T954 643V523H276ZM336 927Q314
871 299 791T279 643H764Q764 825 712 906T543 987Q484 987 427 969T336 927ZM492 1307L695 1670L877 1660V1594L597 1265L492 1275V1307Z" />
<glyph unicode="&#xea;" glyph-name="ecircumflex" horiz-adv-x="1034" d="M276 523V447Q276 279 368 189T589 98Q672 98 752 116T901 163V67Q814 21 719 0T529 -22Q323 -22 210 90T96 414V497Q96 784 223 945T571 1107Q774 1107 864 1004T954 643V523H276ZM336
927Q314 871 299 791T279 643H764Q764 825 712 906T543 987Q484 987 427 969T336 927ZM874 1275L749 1265L556 1517L370 1265L275 1275V1307L508 1680L641 1670L874 1307V1275Z" />
<glyph unicode="&#xeb;" glyph-name="edieresis" horiz-adv-x="1034" d="M276 523V447Q276 279 368 189T589 98Q672 98 752 116T901 163V67Q814 21 719 0T529 -22Q323 -22 210 90T96 414V497Q96 784 223 945T571 1107Q774 1107 864 1004T954 643V523H276ZM336
927Q314 871 299 791T279 643H764Q764 825 712 906T543 987Q484 987 427 969T336 927ZM254 1384Q254 1409 261 1432T280 1472T309 1500T343 1510Q369 1510 392 1503T431 1484T457 1455T467 1420Q467 1395 460 1373T441 1333T413 1305T379 1295Q353 1295 330 1302T290
1321T264 1350T254 1384ZM654 1384Q654 1409 661 1432T680 1472T708 1500T742 1510Q768 1510 791 1503T831 1484T857 1455T867 1420Q867 1395 860 1373T841 1333T812 1305T778 1295Q752 1295 729 1302T690 1321T664 1350T654 1384Z" />
<glyph unicode="&#xec;" glyph-name="igrave" horiz-adv-x="660" d="M439 132L592 98L572 0H126L106 98L259 132V953L106 987L126 1085L439 1107V132ZM420 1275L302 1265L12 1594V1660L187 1670L420 1307V1275Z" />
<glyph unicode="&#xed;" glyph-name="iacute" horiz-adv-x="660" d="M439 132L592 98L572 0H126L106 98L259 132V953L106 987L126 1085L439 1107V132ZM235 1307L438 1670L620 1660V1594L340 1265L235 1275V1307Z" />
<glyph unicode="&#xee;" glyph-name="icircumflex" horiz-adv-x="660" d="M439 132L592 98L572 0H126L106 98L259 132V953L106 987L126 1085L439 1107V132ZM617 1275L492 1265L299 1517L113 1265L18 1275V1307L251 1680L384 1670L617 1307V1275Z" />
<glyph unicode="&#xef;" glyph-name="idieresis" horiz-adv-x="660" d="M439 132L592 98L572 0H126L106 98L259 132V953L106 987L126 1085L439 1107V132ZM-3 1384Q-3 1409 4 1432T23 1472T52 1500T86 1510Q112 1510 135 1503T174 1484T200 1455T210 1420Q210 1395
203 1373T184 1333T156 1305T122 1295Q96 1295 73 1302T33 1321T7 1350T-3 1384ZM397 1384Q397 1409 404 1432T423 1472T451 1500T485 1510Q511 1510 534 1503T574 1484T600 1455T610 1420Q610 1395 603 1373T584 1333T555 1305T521 1295Q495 1295 472 1302T433
1321T407 1350T397 1384Z" />
<glyph unicode="&#xf0;" glyph-name="eth" horiz-adv-x="1114" d="M294 1259L518 1365Q468 1413 412 1457T293 1540L442 1562Q554 1508 651 1428L886 1540L925 1457L724 1361Q827 1257 898 1128T998 849Q1001 832 1004 808T1011 757T1016 705T1018 656V562Q1018
439 989 333T900 148T753 24T547 -22Q434 -22 350 9T209 98T124 237T96 419V512Q96 657 131 768T227 954T373 1068T557 1107Q602 1107 650 1094T735 1055Q711 1117 673 1177T585 1295L333 1175L294 1259ZM838 622Q838 730 811 801T741 913T644 970T537 987Q492
987 455 978T392 957Q360 944 336 927Q319 890 306 837Q295 792 286 726T276 572V453Q276 359 302 292T371 181T467 118T577 98Q619 98 655 107T719 128Q751 141 778 158Q795 192 808 242Q819 285 828 349T838 503V622Z" />
<glyph unicode="&#xf1;" glyph-name="ntilde" horiz-adv-x="1346" d="M106 98L259 132V953L106 987L126 1085L361 1107L419 929Q493 1013 586 1060T782 1107Q961 1107 1046 1014T1131 726V132L1284 98L1264 0H818L798 98L951 132V682Q951 835 902 911T723 987Q656
987 583 954T439 858V132L592 98L572 0H126L106 98ZM307 1307Q307 1420 365 1478T527 1536Q581 1536 636 1516T742 1470T836 1425T908 1404Q946 1404 968 1433T991 1524L1108 1534V1487Q1108 1381 1055 1320T900 1258Q851 1258 794 1278T681 1324T578 1369T503
1390Q483 1390 467 1386T439 1371T422 1341T416 1292L307 1282V1307Z" />
<glyph unicode="&#xf2;" glyph-name="ograve" horiz-adv-x="1114" d="M547 -22Q329 -22 213 94T96 419V512Q96 788 222 947T557 1107Q775 1107 896 991T1018 656V562Q1018 297 892 138T547 -22ZM838 622Q838 793 760 888T537 987Q482 987 427 970T336 927Q310
868 293 774T276 572V453Q276 285 362 192T577 98Q627 98 680 114T778 158Q809 223 823 313T838 503V622ZM671 1275L553 1265L263 1594V1660L438 1670L671 1307V1275Z" />
<glyph unicode="&#xf3;" glyph-name="oacute" horiz-adv-x="1114" d="M547 -22Q329 -22 213 94T96 419V512Q96 788 222 947T557 1107Q775 1107 896 991T1018 656V562Q1018 297 892 138T547 -22ZM838 622Q838 793 760 888T537 987Q482 987 427 970T336 927Q310
868 293 774T276 572V453Q276 285 362 192T577 98Q627 98 680 114T778 158Q809 223 823 313T838 503V622ZM486 1307L689 1670L871 1660V1594L591 1265L486 1275V1307Z" />
<glyph unicode="&#xf4;" glyph-name="ocircumflex" horiz-adv-x="1114" d="M547 -22Q329 -22 213 94T96 419V512Q96 788 222 947T557 1107Q775 1107 896 991T1018 656V562Q1018 297 892 138T547 -22ZM838 622Q838 793 760 888T537 987Q482 987 427 970T336 927Q310
868 293 774T276 572V453Q276 285 362 192T577 98Q627 98 680 114T778 158Q809 223 823 313T838 503V622ZM868 1275L743 1265L550 1517L364 1265L269 1275V1307L502 1680L635 1670L868 1307V1275Z" />
<glyph unicode="&#xf5;" glyph-name="otilde" horiz-adv-x="1114" d="M547 -22Q329 -22 213 94T96 419V512Q96 788 222 947T557 1107Q775 1107 896 991T1018 656V562Q1018 297 892 138T547 -22ZM838 622Q838 793 760 888T537 987Q482 987 427 970T336 927Q310
868 293 774T276 572V453Q276 285 362 192T577 98Q627 98 680 114T778 158Q809 223 823 313T838 503V622ZM165 1307Q165 1420 223 1478T385 1536Q439 1536 494 1516T600 1470T694 1425T766 1404Q804 1404 826 1433T849 1524L966 1534V1487Q966 1381 913 1320T758
1258Q709 1258 652 1278T539 1324T436 1369T361 1390Q341 1390 325 1386T297 1371T280 1341T274 1292L165 1282V1307Z" />
<glyph unicode="&#xf6;" glyph-name="odieresis" horiz-adv-x="1114" d="M547 -22Q329 -22 213 94T96 419V512Q96 788 222 947T557 1107Q775 1107 896 991T1018 656V562Q1018 297 892 138T547 -22ZM838 622Q838 793 760 888T537 987Q482 987 427 970T336 927Q310
868 293 774T276 572V453Q276 285 362 192T577 98Q627 98 680 114T778 158Q809 223 823 313T838 503V622ZM248 1384Q248 1409 255 1432T274 1472T303 1500T337 1510Q363 1510 386 1503T425 1484T451 1455T461 1420Q461 1395 454 1373T435 1333T407 1305T373 1295Q347
1295 324 1302T284 1321T258 1350T248 1384ZM648 1384Q648 1409 655 1432T674 1472T702 1500T736 1510Q762 1510 785 1503T825 1484T851 1455T861 1420Q861 1395 854 1373T835 1333T806 1305T772 1295Q746 1295 723 1302T684 1321T658 1350T648 1384Z" />
<glyph unicode="&#xf7;" glyph-name="divide" horiz-adv-x="1173" d="M160 667H1013V520H160V667ZM487 182Q487 210 493 235T511 279T536 309T568 320Q597 320 622 314T665 296T694 269T705 237Q705 210 699 186T681 142T655 112T623 101Q594 101 570 107T527
125T498 150T487 182ZM487 947Q487 975 493 1000T511 1044T536 1074T568 1085Q597 1085 622 1079T665 1061T694 1034T705 1002Q705 975 699 951T681 907T655 877T623 866Q594 866 570 872T527 890T498 915T487 947Z" />
<glyph unicode="&#xf8;" glyph-name="oslash" horiz-adv-x="1114" d="M547 -22Q489 -22 439 -14L373 -226H248V-206L319 21Q258 49 212 94Q96 211 96 419V512Q96 788 222 947T557 1107Q609 1107 656 1100L722 1311H847V1291L777 1068Q845 1039 896 990Q1018 874
1018 656V562Q1018 297 892 138T547 -22ZM838 622Q838 793 759 888Q746 905 730 918L479 113Q524 98 577 98Q627 98 680 114T778 158Q809 223 823 313T838 503V622ZM537 987Q482 987 427 970T336 927Q310 868 293 774T276 572V453Q276 285 362 191Q366 187 370
183L617 977Q580 986 537 987Z" />
<glyph unicode="&#xf9;" glyph-name="ugrave" horiz-adv-x="1262" d="M371 403Q371 247 426 173T613 98Q685 98 756 132T883 225V953L700 987L720 1085L1063 1107V132L1216 98L1196 0L961 -22L903 156Q822 61 732 20T532 -22Q364 -22 278 73T191 359V953L38 987L58
1085L371 1107V403ZM712 1275L594 1265L304 1594V1660L479 1670L712 1307V1275Z" />
<glyph unicode="&#xfa;" glyph-name="uacute" horiz-adv-x="1262" d="M371 403Q371 247 426 173T613 98Q685 98 756 132T883 225V953L700 987L720 1085L1063 1107V132L1216 98L1196 0L961 -22L903 156Q822 61 732 20T532 -22Q364 -22 278 73T191 359V953L38 987L58
1085L371 1107V403ZM527 1307L730 1670L912 1660V1594L632 1265L527 1275V1307Z" />
<glyph unicode="&#xfb;" glyph-name="ucircumflex" horiz-adv-x="1262" d="M371 403Q371 247 426 173T613 98Q685 98 756 132T883 225V953L700 987L720 1085L1063 1107V132L1216 98L1196 0L961 -22L903 156Q822 61 732 20T532 -22Q364 -22 278 73T191 359V953L38
987L58 1085L371 1107V403ZM909 1275L784 1265L591 1517L405 1265L310 1275V1307L543 1680L676 1670L909 1307V1275Z" />
<glyph unicode="&#xfc;" glyph-name="udieresis" horiz-adv-x="1262" d="M371 403Q371 247 426 173T613 98Q685 98 756 132T883 225V953L700 987L720 1085L1063 1107V132L1216 98L1196 0L961 -22L903 156Q822 61 732 20T532 -22Q364 -22 278 73T191 359V953L38
987L58 1085L371 1107V403ZM289 1384Q289 1409 296 1432T315 1472T344 1500T378 1510Q404 1510 427 1503T466 1484T492 1455T502 1420Q502 1395 495 1373T476 1333T448 1305T414 1295Q388 1295 365 1302T325 1321T299 1350T289 1384ZM689 1384Q689 1409 696 1432T715
1472T743 1500T777 1510Q803 1510 826 1503T866 1484T892 1455T902 1420Q902 1395 895 1373T876 1333T847 1305T813 1295Q787 1295 764 1302T725 1321T699 1350T689 1384Z" />
<glyph unicode="&#xfd;" glyph-name="yacute" horiz-adv-x="1106" d="M777 1085H1102L1122 987L1025 968L668 2Q578 -247 491 -352T265 -457Q206 -457 146 -442T48 -410L84 -279Q139 -299 213 -314T354 -330Q392 -304 428 -255T494 -125L87 968L-10 987L10 1085H380L400
987L275 968L570 132H586L882 968L757 987L777 1085ZM508 1307L711 1670L893 1660V1594L613 1265L508 1275V1307Z" />
<glyph unicode="&#xfe;" glyph-name="thorn" horiz-adv-x="1134" d="M4 -336L157 -302V1408L4 1442L24 1540L337 1562V952Q359 976 389 1003T460 1053T552 1092T665 1107Q749 1107 818 1082T935 1001T1011 861T1038 656V562Q1038 430 1008 322T919 138T775 20T580
-22Q518 -22 458 -15T337 3V-302L490 -336L470 -435H24L4 -336ZM858 622Q858 726 838 796T782 908T700 969T601 987Q549 987 502 967T418 922Q375 894 337 858V125Q357 120 385 116T444 107T507 101T570 98Q623 98 665 107T738 128Q773 141 801 158Q817 202 829
257Q840 304 849 366T858 503V622Z" />
<glyph unicode="&#xff;" glyph-name="ydieresis" horiz-adv-x="1106" d="M777 1085H1102L1122 987L1025 968L668 2Q578 -247 491 -352T265 -457Q206 -457 146 -442T48 -410L84 -279Q139 -299 213 -314T354 -330Q392 -304 428 -255T494 -125L87 968L-10 987L10
1085H380L400 987L275 968L570 132H586L882 968L757 987L777 1085ZM270 1384Q270 1409 277 1432T296 1472T325 1500T359 1510Q385 1510 408 1503T447 1484T473 1455T483 1420Q483 1395 476 1373T457 1333T429 1305T395 1295Q369 1295 346 1302T306 1321T280 1350T270
1384ZM670 1384Q670 1409 677 1432T696 1472T724 1500T758 1510Q784 1510 807 1503T847 1484T873 1455T883 1420Q883 1395 876 1373T857 1333T828 1305T794 1295Q768 1295 745 1302T706 1321T680 1350T670 1384Z" />
<glyph unicode="&#x2013;" glyph-name="endash" horiz-adv-x="1141" d="M90 645H1071L1051 509H70L90 645Z" />
<glyph unicode="&#x2014;" glyph-name="emdash" horiz-adv-x="2035" d="M30 645H2005L1985 509H10L30 645Z" />
<glyph unicode="&#x2018;" glyph-name="quoteleft" horiz-adv-x="472" d="M332 1153Q332 1121 325 1093T305 1042T275 1008T239 995Q203 995 165 1006T101 1043Q93 1052 86 1064T73 1093T64 1134T60 1190Q60 1236 67 1279T95 1367T154 1459T257 1562L319 1489Q240
1423 210 1373T180 1284Q180 1266 194 1256T231 1240Q276 1229 304 1206T332 1153Z" />
<glyph unicode="&#x2019;" glyph-name="quoteright" horiz-adv-x="386" d="M48 1404Q48 1436 55 1464T75 1515T105 1549T141 1562Q177 1562 215 1551T279 1514Q295 1497 307 1464T320 1367Q320 1321 313 1278T285 1190T226 1098T123 995L61 1068Q140 1134 170
1184T200 1273Q200 1291 186 1301T149 1317Q104 1328 76 1351T48 1404Z" />
<glyph unicode="&#x201a;" glyph-name="quotesinglbase" horiz-adv-x="472" d="M120 72Q120 104 127 132T147 183T177 217T213 230Q249 230 287 219T351 182Q367 165 379 132T392 35Q392 -11 385 -54T357 -142T298 -234T195 -337L133 -264Q212 -198 242 -148T272
-59Q272 -41 258 -31T221 -15Q176 -4 148 19T120 72Z" />
<glyph unicode="&#x201c;" glyph-name="quotedblleft" horiz-adv-x="822" d="M332 1153Q332 1121 325 1093T305 1042T275 1008T239 995Q203 995 165 1006T101 1043Q93 1052 86 1064T73 1093T64 1134T60 1190Q60 1236 67 1279T95 1367T154 1459T257 1562L319 1489Q240
1423 210 1373T180 1284Q180 1266 194 1256T231 1240Q276 1229 304 1206T332 1153ZM682 1153Q682 1121 675 1093T655 1042T625 1008T589 995Q553 995 515 1006T451 1043Q443 1052 436 1064T423 1093T414 1134T410 1190Q410 1236 417 1279T445 1367T504 1459T607
1562L669 1489Q590 1423 560 1373T530 1284Q530 1266 544 1256T581 1240Q626 1229 654 1206T682 1153Z" />
<glyph unicode="&#x201d;" glyph-name="quotedblright" horiz-adv-x="736" d="M48 1404Q48 1436 55 1464T75 1515T105 1549T141 1562Q177 1562 215 1551T279 1514Q295 1497 307 1464T320 1367Q320 1321 313 1278T285 1190T226 1098T123 995L61 1068Q140 1134 170
1184T200 1273Q200 1291 186 1301T149 1317Q104 1328 76 1351T48 1404ZM398 1404Q398 1436 405 1464T425 1515T455 1549T491 1562Q527 1562 565 1551T629 1514Q645 1497 657 1464T670 1367Q670 1321 663 1278T635 1190T576 1098T473 995L411 1068Q490 1134 520
1184T550 1273Q550 1291 536 1301T499 1317Q454 1328 426 1351T398 1404Z" />
<glyph unicode="&#x201e;" glyph-name="quotedblbase" horiz-adv-x="823" d="M120 72Q120 104 127 132T147 183T177 217T213 230Q249 230 287 219T351 182Q367 165 379 132T392 35Q392 -11 385 -54T357 -142T298 -234T195 -337L133 -264Q212 -198 242 -148T272
-59Q272 -41 258 -31T221 -15Q176 -4 148 19T120 72ZM471 72Q471 104 478 132T498 183T528 217T564 230Q600 230 638 219T702 182Q718 165 730 132T743 35Q743 -11 736 -54T708 -142T649 -234T546 -337L484 -264Q563 -198 593 -148T623 -59Q623 -41 609 -31T572
-15Q527 -4 499 19T471 72Z" />
<glyph unicode="&#x2022;" glyph-name="bullet" horiz-adv-x="740" d="M140 583Q140 642 154 696T191 791T247 856T315 880Q377 880 431 866T524 828T587 772T610 703Q610 644 596 591T558 498T502 433T434 409Q372 409 319 423T225 460T163 515T140 583Z" />
<glyph unicode="&#x2039;" glyph-name="guilsinglleft" horiz-adv-x="800" d="M545 115L150 536V596L545 1017H630V995L330 576V556L630 137V115H545Z" />
<glyph unicode="&#x203a;" glyph-name="guilsinglright" horiz-adv-x="800" d="M170 115V137L470 556V576L170 995V1017H255L650 596V536L255 115H170Z" />
</font>
</defs>
</svg>
