<?xml version="1.0" standalone="no"?>
<!DOCTYPE svg PUBLIC "-//W3C//DTD SVG 1.1//EN" "http://www.w3.org/Graphics/SVG/1.1/DTD/svg11.dtd">
<svg xmlns="http://www.w3.org/2000/svg">
<defs >
<font id="Oswald" horiz-adv-x="437" ><font-face
    font-family="Oswald Light"
    units-per-em="1000"
    panose-1="0 0 4 0 0 0 0 0 0 0"
    ascent="1193"
    descent="-289"
    alphabetic="0" />
<glyph unicode=" " glyph-name="space" horiz-adv-x="204" />
<glyph unicode="!" glyph-name="exclam" horiz-adv-x="201" d="M62 810H140L113 174H87L62 810ZM61 88H139V0H61V88Z" />
<glyph unicode="&quot;" glyph-name="quotedbl" horiz-adv-x="215" d="M19 810H90L59 573H19V810ZM141 810H211L181 573H141V810Z" />
<glyph unicode="#" glyph-name="numbersign" horiz-adv-x="465" d="M97 291H41V346H106L128 487H53V542H136L178 810H249L208 542H307L348 810H419L378 542H429V487H370L347 346H416V291H339L294 0H223L268 291H169L124 0H53L97 291ZM276 346L298 487H199L177 346H276Z" />
<glyph unicode="$" glyph-name="dollar" horiz-adv-x="466" d="M238 -9Q144 -8 96 50T41 210L108 230Q117 144 146 98T244 52Q358 52 358 169Q358 219 335 256T259 344L116 481Q78 518 60 557T42 644Q42 724 88 769T214 818V902H246V818Q326 813 369 765T419 613L354
596Q348 677 321 717T231 758Q176 758 144 732T111 651Q111 618 124 591T168 533L311 398Q366 345 397 291T429 174Q429 92 386 46T269 -8V-88H238V-9Z" />
<glyph unicode="%" glyph-name="percent" horiz-adv-x="732" d="M40 403T40 559V672Q40 746 69 785T163 825Q227 825 256 786T285 674V558Q285 403 163 403Q40 403 40 559ZM463 817H527L272 0H206L463 817ZM194 460T206 485T219 556V675Q219 720 207 744T163 768Q131
768 119 744T107 674V556Q107 511 119 486T163 460Q194 460 206 485ZM447 -6T447 150V262Q447 336 475 375T569 415Q634 415 663 377T692 264V148Q692 -6 569 -6Q447 -6 447 150ZM600 50T612 75T625 147V265Q625 311 613 335T569 359Q538 359 526 335T513 265V147Q513
101 525 76T569 50Q600 50 612 75Z" />
<glyph unicode="&amp;" glyph-name="ampersand" horiz-adv-x="604" d="M184 -10T142 14T79 80T57 174Q57 236 88 293T187 415Q148 480 131 511T103 577T92 647Q92 727 138 772T264 818Q339 818 384 780T429 674Q429 611 384 546T260 410L416 164Q442 200 459 256T479
359H550Q550 304 525 235T460 117Q481 89 503 77T552 65V-7L533 -6Q475 -1 416 69Q386 34 342 12T244 -10Q184 -10 142 14ZM357 575T357 675Q357 714 332 735T262 757Q214 757 189 726T164 648Q164 605 181 561T234 452Q357 575 357 675ZM282 51T313 67T374 117L216
363Q171 313 151 267T131 174Q131 123 158 87T244 51Q282 51 313 67Z" />
<glyph unicode="&apos;" glyph-name="quotesingle" horiz-adv-x="93" d="M19 810H90L59 573H19V810Z" />
<glyph unicode="(" glyph-name="parenleft" horiz-adv-x="278" d="M169 -160T133 -97T88 63T79 325Q79 493 87 589T132 750T247 816V764Q202 760 181 706T155 571T150 352V277Q150 149 155 70T182 -59T247 -114V-165Q169 -160 133 -97Z" />
<glyph unicode=")" glyph-name="parenright" horiz-adv-x="257" d="M30 -114Q75 -109 96 -55T123 80T128 300V374Q128 502 122 580T95 710T30 765V816Q108 814 145 750T191 589T200 326Q200 161 191 65T146 -96T30 -165V-114Z" />
<glyph unicode="*" glyph-name="asterisk" horiz-adv-x="372" d="M73 511L160 628L35 677L54 725L174 665L166 809H223L213 665L333 725L351 677L227 628L314 510L269 483L193 610L118 483L73 511Z" />
<glyph unicode="+" glyph-name="plus" horiz-adv-x="383" d="M163 388H23V444H163V600H218V444H359V388H218V230H163V388Z" />
<glyph unicode="," glyph-name="comma" horiz-adv-x="181" d="M49 -84Q75 -69 86 -50T97 0H54V109H135V8Q135 -41 119 -69T65 -116L49 -84Z" />
<glyph unicode="-" glyph-name="hyphen" horiz-adv-x="297" d="M43 355H255V297H43V355Z" />
<glyph unicode="." glyph-name="period" horiz-adv-x="181" d="M60 110H137V0H60V110Z" />
<glyph unicode="/" glyph-name="slash" horiz-adv-x="344" d="M255 810H319L89 0H24L255 810Z" />
<glyph unicode="0" glyph-name="zero" horiz-adv-x="517" d="M66 -10T66 229V581Q66 818 258 818Q452 818 452 581V229Q452 116 407 53T258 -10Q66 -10 66 229ZM323 48T350 95T377 223V586Q377 668 351 714T258 760Q193 760 167 714T140 586V223Q140 48 258 48Q323
48 350 95Z" />
<glyph unicode="1" glyph-name="one" horiz-adv-x="367" d="M168 712Q158 698 127 687T43 659V718Q79 728 119 752T183 810H242V0H168V712Z" />
<glyph unicode="2" glyph-name="two" horiz-adv-x="485" d="M49 54L267 388Q271 394 274 399T280 407Q321 471 340 515T360 618Q360 684 333 720T252 757Q182 757 155 713T128 588V570H55V590Q55 704 101 761T249 818Q339 818 386 765T433 612Q433 566 420 525T389
452T337 368L135 62H416V0H49V54Z" />
<glyph unicode="3" glyph-name="three" horiz-adv-x="482" d="M146 -10T102 42T58 187V207H129V190Q130 122 155 86T238 50Q297 50 326 90T356 220Q356 388 235 392H215V462H235Q300 462 328 498T356 616Q356 684 331 721T246 759Q185 759 158 725T129 618V604H58V623Q58
818 245 818Q338 818 384 764T431 616Q431 534 400 487T315 426Q365 413 398 362T431 221Q431 113 384 52T238 -10Q146 -10 102 42Z" />
<glyph unicode="4" glyph-name="four" horiz-adv-x="489" d="M294 237H50V311L280 810H366V303H459V237H366V0H294V237ZM294 303V713L124 303H294Z" />
<glyph unicode="5" glyph-name="five" horiz-adv-x="477" d="M146 -9T104 45T61 209H134Q134 130 158 90T244 50Q310 50 333 98T356 256Q356 331 346 374T311 437T245 457Q180 457 140 390H79V810H394L393 741H144L140 460Q183 514 264 514Q351 514 390 451T429
265Q429 129 385 60T241 -9Q146 -9 104 45Z" />
<glyph unicode="6" glyph-name="six" horiz-adv-x="499" d="M66 -10T66 244V567Q66 818 252 818Q432 818 434 631L435 614H362Q362 692 338 725T255 758Q139 758 139 584V431Q160 450 194 464T269 478Q335 478 373 453T427 376T444 237Q444 -10 253 -10Q66 -10
66 244ZM313 51T341 92T370 223Q370 297 362 338T329 400T253 421Q221 421 189 407T139 375V235Q139 138 166 95T253 51Q313 51 341 92Z" />
<glyph unicode="7" glyph-name="seven" horiz-adv-x="402" d="M275 751H30V810H350V774L189 0H117L275 751Z" />
<glyph unicode="8" glyph-name="eight" horiz-adv-x="499" d="M59 -10T59 217Q59 283 75 324T116 386T176 425Q124 446 96 493T67 615Q67 709 111 763T250 818Q344 818 387 763T431 613Q431 469 323 425Q357 408 381 387T423 324T440 217Q440 -10 250 -10Q59 -10
59 217ZM359 463T359 616Q359 687 333 723T250 759Q139 759 139 616Q139 463 250 458Q359 463 359 616ZM310 49T339 90T368 217Q368 382 250 391Q186 386 158 341T130 217Q130 131 160 90T250 49Q310 49 339 90Z" />
<glyph unicode="9" glyph-name="nine" horiz-adv-x="501" d="M69 -10T67 180V194H139Q139 116 164 84T253 51Q307 51 334 91T362 225V378Q345 358 312 344T232 330Q166 330 128 355T74 432T57 572Q57 689 103 753T250 818Q436 818 436 565V242Q436 -10 252 -10Q69
-10 67 180ZM288 387T316 401T362 434V573Q362 671 336 714T250 757Q190 757 161 716T132 586Q132 511 139 471T172 409T249 387Q288 387 316 401Z" />
<glyph unicode=":" glyph-name="colon" horiz-adv-x="193" d="M69 530H147V423H69V530ZM69 190H147V84H69V190Z" />
<glyph unicode=";" glyph-name="semicolon" horiz-adv-x="208" d="M69 551H146V441H69V551ZM64 4Q92 16 102 32T112 79H69V182H150V87Q150 37 134 10T79 -28L64 4Z" />
<glyph unicode="&lt;" glyph-name="less" horiz-adv-x="363" d="M29 266V338L306 548V472L86 302L306 137V62L29 266Z" />
<glyph unicode="=" glyph-name="equal" horiz-adv-x="401" d="M51 511H349V453H51V511ZM51 343H349V285H51V343Z" />
<glyph unicode="&gt;" glyph-name="greater" horiz-adv-x="363" d="M57 137L278 307L57 472V548L335 343V271L57 62V137Z" />
<glyph unicode="?" glyph-name="question" horiz-adv-x="474" d="M174 325Q267 392 311 460T356 611Q356 681 325 717T236 754Q187 754 158 728T128 656Q128 631 138 601L71 586Q57 621 57 655Q57 730 106 774T236 818Q324 818 375 763T427 609Q427 515 381 446T238
305V201H174V325ZM171 87H243V0H171V87Z" />
<glyph unicode="@" glyph-name="at" horiz-adv-x="842" d="M276 -112T168 -12T59 313Q59 478 112 589T258 755T468 809Q634 809 717 709T801 430Q801 324 770 254T692 152T592 119Q555 119 529 143T505 211Q491 171 463 144T395 116Q330 112 293 160T255 291Q255
375 287 447T372 562T486 605Q522 605 556 580L565 599H619L569 252Q566 230 566 211Q566 187 573 176T602 164Q634 164 665 189T719 267T744 400L745 431Q745 593 673 672T465 752Q366 752 290 701T170 550T126 315Q126 110 219 28T458 -55Q547 -55 642 -30L658
-83Q545 -112 453 -112Q276 -112 168 -12ZM438 174T465 203T507 283L543 536Q523 549 496 549Q454 549 414 516T350 424T325 290Q325 228 347 198T406 172Q438 174 465 203Z" />
<glyph unicode="A" glyph-name="A" horiz-adv-x="477" d="M198 810H278L450 0H375L335 217H142L101 0H27L198 810ZM325 272L239 709L153 272H325Z" />
<glyph unicode="B" glyph-name="B" horiz-adv-x="502" d="M71 810H245Q351 810 397 758T443 608Q443 542 419 495T340 437Q406 419 434 364T462 234Q462 125 420 63T271 0H71V810ZM257 461Q322 461 348 498T374 608Q374 659 361 690T314 736T219 751H147V461H257ZM256
57Q308 57 336 75T376 132T388 234Q388 402 258 402H147V57H256Z" />
<glyph unicode="C" glyph-name="C" horiz-adv-x="499" d="M145 -10T100 57T54 243V565Q54 687 99 752T259 818Q363 818 407 759T451 588V539H379V586Q379 644 370 680T335 737T260 757Q207 757 179 735T141 675T131 576V231Q131 137 159 94T260 51Q331 51 355
94T379 227V280H451V232Q451 116 408 53T259 -10Q145 -10 100 57Z" />
<glyph unicode="D" glyph-name="D" horiz-adv-x="521" d="M71 810H247Q367 810 417 749T467 572V250Q467 129 419 65T254 0H71V810ZM249 57Q310 57 340 82T380 150T389 262V564Q389 630 378 669T336 730T246 751H147V57H249Z" />
<glyph unicode="E" glyph-name="E" horiz-adv-x="398" d="M70 810H363V751H147V447H323V391H147V57H365V0H70V810Z" />
<glyph unicode="F" glyph-name="F" horiz-adv-x="386" d="M71 810H362V753H147V448H326V392H147V0H71V810Z" />
<glyph unicode="G" glyph-name="G" horiz-adv-x="519" d="M145 -11T100 55T54 247V563Q54 689 99 753T259 818Q364 818 409 760T455 585V557H383V585Q383 676 357 716T260 757Q207 757 179 734T141 672T131 571V238Q131 143 158 97T261 51Q332 51 360 97T388 240V335H268V392H458V0H409L400
92Q383 43 348 16T254 -11Q145 -11 100 55Z" />
<glyph unicode="H" glyph-name="H" horiz-adv-x="549" d="M70 810H147V451H402V810H478V0H402V394H147V0H70V810Z" />
<glyph unicode="I" glyph-name="I" horiz-adv-x="222" d="M73 810H149V0H73V810Z" />
<glyph unicode="J" glyph-name="J" horiz-adv-x="279" d="M8 22Q65 22 90 32T124 71T132 163V810H208V159Q208 87 196 46T148 -15T45 -35H8V22Z" />
<glyph unicode="K" glyph-name="K" horiz-adv-x="473" d="M70 810H147V382L363 810H436L270 462L472 0H397L219 405L147 273V0H70V810Z" />
<glyph unicode="L" glyph-name="L" horiz-adv-x="382" d="M71 810H147V57H377V0H71V810Z" />
<glyph unicode="M" glyph-name="M" horiz-adv-x="643" d="M84 810H160L320 107L483 810H559L579 0H516L500 645L345 0H296L143 644L127 0H64L84 810Z" />
<glyph unicode="N" glyph-name="N" horiz-adv-x="520" d="M71 810H126L384 181V810H450V0H396L137 636V0H71V810Z" />
<glyph unicode="O" glyph-name="O" horiz-adv-x="525" d="M149 -10T102 55T54 239V575Q54 693 102 755T263 818Q374 818 422 755T470 575V238Q470 119 423 55T263 -10Q149 -10 102 55ZM337 51T365 94T393 222V589Q393 673 366 715T263 757Q187 757 159 716T131
589V222Q131 137 159 94T263 51Q337 51 365 94Z" />
<glyph unicode="P" glyph-name="P" horiz-adv-x="483" d="M71 810H265Q368 810 412 754T457 595Q457 501 411 442T266 383H147V0H71V810ZM244 440Q319 440 350 474T382 595Q382 658 370 691T329 739T245 753H147V440H244Z" />
<glyph unicode="Q" glyph-name="Q" horiz-adv-x="530" d="M378 -133T290 -9Q282 -10 264 -10Q150 -10 102 55T54 239V575Q54 692 103 755T264 818Q377 818 426 755T475 575V238Q475 145 446 85T348 3Q369 -24 396 -53T441 -95L431 -159Q378 -133 290 -9ZM339 51T368
94T398 222V589Q398 673 369 715T264 757Q189 757 160 715T131 589V222Q131 138 160 95T264 51Q339 51 368 94Z" />
<glyph unicode="R" glyph-name="R" horiz-adv-x="512" d="M71 810H254Q363 810 409 758T455 604Q455 527 430 477T343 414L467 0H393L274 398H147V0H71V810ZM250 454Q323 454 352 490T381 604Q381 683 354 718T252 753H147V454H250Z" />
<glyph unicode="S" glyph-name="S" horiz-adv-x="460" d="M148 -10T98 48T41 210L108 230Q117 144 146 98T244 52Q358 52 358 169Q358 219 335 257T259 344L116 481Q77 517 60 556T42 644Q42 727 91 772T225 818Q315 818 363 770T419 613L354 596Q348 678 320
718T225 758Q173 758 142 731T111 651Q111 617 124 590T168 533L311 398Q366 346 397 292T429 174Q429 86 378 38T243 -10Q148 -10 98 48Z" />
<glyph unicode="T" glyph-name="T" horiz-adv-x="414" d="M171 751H18V810H396V751H247V0H171V751Z" />
<glyph unicode="U" glyph-name="U" horiz-adv-x="537" d="M152 -10T107 49T62 221V810H136V219Q136 139 164 95T269 51Q342 51 372 95T402 219V810H475V221Q475 111 429 51T269 -10Q152 -10 107 49Z" />
<glyph unicode="V" glyph-name="V" horiz-adv-x="489" d="M24 810H97L250 139L394 810H466L283 0H214L24 810Z" />
<glyph unicode="W" glyph-name="W" horiz-adv-x="715" d="M35 810H100L207 152L329 798H392L517 151L616 810H680L549 0H490L361 668L234 0H172L35 810Z" />
<glyph unicode="X" glyph-name="X" horiz-adv-x="463" d="M189 422L16 810H87L232 487L371 810H444L265 413L450 0H377L223 342L87 0H14L189 422Z" />
<glyph unicode="Y" glyph-name="Y" horiz-adv-x="469" d="M200 269L17 810H91L237 360L377 810H452L274 269V0H200V269Z" />
<glyph unicode="Z" glyph-name="Z" horiz-adv-x="407" d="M34 57L305 753H56V810H387V770L109 57H387V0H34V57Z" />
<glyph unicode="[" glyph-name="bracketleft" horiz-adv-x="302" d="M70 810H244V769H144V-118H244V-160H70V810Z" />
<glyph unicode="\" glyph-name="backslash" horiz-adv-x="344" d="M24 810H89L319 0H255L24 810Z" />
<glyph unicode="]" glyph-name="bracketright" horiz-adv-x="285" d="M40 -118H141V768H40V810H215V-159H40V-118Z" />
<glyph unicode="^" glyph-name="asciicircum" horiz-adv-x="394" d="M159 810H235L366 511H299L198 759L95 511H29L159 810Z" />
<glyph unicode="_" glyph-name="underscore" horiz-adv-x="332" d="M0 -49H332V-107H0V-49Z" />
<glyph unicode="`" glyph-name="grave" horiz-adv-x="235" d="M53 810H127L182 615H145L53 810Z" />
<glyph unicode="a" glyph-name="a" horiz-adv-x="397" d="M104 -9T72 28T40 120Q40 177 62 214T132 280T273 351V392Q273 446 267 476T245 519T201 532Q120 532 120 433V413L48 414Q49 503 86 545T205 587Q281 587 313 541T346 396V115Q346 87 347 51T351 0H286L275
80Q262 42 231 17T156 -9Q104 -9 72 28ZM209 53T233 73T273 122V302Q205 266 175 246T129 202T113 138Q113 95 131 74T179 53Q209 53 233 73Z" />
<glyph unicode="b" glyph-name="b" horiz-adv-x="416" d="M177 -9T130 46V0H57V810H130V530Q149 555 177 571T240 587Q316 587 344 524T372 357V235Q372 116 341 54T233 -9Q177 -9 130 46ZM267 49T282 92T298 233V357Q298 450 283 490T219 530Q175 530 130 485V91Q168
49 220 49Q267 49 282 92Z" />
<glyph unicode="c" glyph-name="c" horiz-adv-x="389" d="M136 -9T102 19T57 96T45 219V354Q45 438 58 488T105 562T200 587Q285 587 316 541T347 402V374H279V402Q279 453 272 481T247 520T200 532Q166 532 149 516T125 466T118 366V204Q118 144 125 110T150
61T201 46Q235 46 251 60T273 104T279 185V217H347V189Q347 124 336 82T292 15T200 -9Q136 -9 102 19Z" />
<glyph unicode="d" glyph-name="d" horiz-adv-x="413" d="M110 -9T78 47T45 233V340Q45 463 74 525T181 587Q237 587 283 537V810H356V0H283V41Q237 -9 184 -9Q110 -9 78 47ZM241 49T283 87V489Q237 530 197 530Q151 530 135 491T118 364V227Q118 133 134 91T199
49Q241 49 283 87Z" />
<glyph unicode="e" glyph-name="e" horiz-adv-x="395" d="M145 -9T111 13T61 84T45 217V363Q45 448 61 496T112 566T202 587Q262 587 294 562T339 485T352 348V296H118V195Q118 112 137 79T201 46Q239 46 259 70T280 157V197H351V165Q351 81 316 36T201 -9Q145
-9 111 13ZM280 338V386Q280 438 275 468T252 515T201 532Q170 532 152 519T126 472T118 377V338H280Z" />
<glyph unicode="f" glyph-name="f" horiz-adv-x="268" d="M92 525H18V578H92V638Q92 687 99 718T130 767T198 785Q230 785 257 778V724Q237 729 216 729Q185 729 176 711T166 645V578H259V525H166V0H92V525Z" />
<glyph unicode="g" glyph-name="g" horiz-adv-x="431" d="M114 -190T66 -164T17 -85Q17 -45 44 -12T112 41Q48 58 48 104Q48 132 64 155T117 209Q79 237 62 280T44 385Q44 473 85 530T206 587Q294 587 330 515Q339 531 361 550T408 580L423 585L443 534Q419 530
390 514T348 484Q355 465 360 435T366 383Q366 290 328 236T207 181Q192 181 176 183T148 190Q109 151 109 124Q109 110 120 103T157 92L249 78Q321 67 357 35T394 -56Q394 -123 343 -156T203 -190Q114 -190 66 -164ZM264 234T283 276T302 385Q302 535 207 535Q152
535 131 491T110 385Q110 234 207 234Q264 234 283 276ZM267 -131T301 -113T336 -57Q336 -25 314 -7T227 21L153 31Q120 7 100 -15T79 -67Q79 -100 110 -115T206 -131Q267 -131 301 -113Z" />
<glyph unicode="h" glyph-name="h" horiz-adv-x="412" d="M57 810H130V517Q195 587 271 587Q314 587 337 555T360 464V0H286V448Q286 492 273 511T231 530Q207 530 181 515T130 475V0H57V810Z" />
<glyph unicode="i" glyph-name="i" horiz-adv-x="204" d="M64 757H137V658H64V757ZM64 578H137V0H64V578Z" />
<glyph unicode="j" glyph-name="j" horiz-adv-x="213" d="M77 757H150V658H77V757ZM-6 -152T-17 -148V-92Q-9 -94 8 -94Q49 -94 63 -73T77 -14V578H150V-20Q150 -152 22 -152Q-6 -152 -17 -148Z" />
<glyph unicode="k" glyph-name="k" horiz-adv-x="400" d="M57 810H130V296L323 578H400L254 355L394 0H320L198 314L130 219V0H57V810Z" />
<glyph unicode="l" glyph-name="l" horiz-adv-x="202" d="M66 810H139V0H66V810Z" />
<glyph unicode="m" glyph-name="m" horiz-adv-x="644" d="M56 578H124V519Q152 553 187 570T260 588Q332 588 352 513Q381 550 417 569T494 588Q537 588 564 557T592 456V0H524V454Q524 501 509 519T466 538Q440 538 411 522T357 478Q359 464 359 456V0H290V454Q290
502 275 520T232 538Q206 538 178 522T124 479V0H56V578Z" />
<glyph unicode="n" glyph-name="n" horiz-adv-x="409" d="M56 578H129V518Q158 550 193 568T268 587Q311 587 334 555T357 464V0H284V448Q284 492 271 511T229 530Q205 530 179 516T129 476V0H56V578Z" />
<glyph unicode="o" glyph-name="o" horiz-adv-x="399" d="M113 -9T79 44T45 209V369Q45 480 79 533T199 587Q286 587 320 534T354 369V209Q354 98 320 45T199 -9Q113 -9 79 44ZM235 46T252 65T275 116T280 205V373Q280 429 275 461T253 513T199 532Q163 532 146
513T124 462T119 373V205Q119 149 124 117T146 65T199 46Q235 46 252 65Z" />
<glyph unicode="p" glyph-name="p" horiz-adv-x="417" d="M56 578H129V530Q174 587 240 587Q316 587 343 525T371 357V235Q371 116 340 54T232 -9Q178 -9 129 46V-190H56V578ZM267 49T282 92T298 233V357Q298 450 283 490T219 530Q174 530 129 485V91Q169 49 221
49Q267 49 282 92Z" />
<glyph unicode="q" glyph-name="q" horiz-adv-x="414" d="M285 41Q241 -9 186 -9Q112 -9 80 47T47 233V340Q47 464 76 525T184 587Q215 587 240 573T285 536V578H358V-190H285V41ZM244 49T285 88V488Q241 530 199 530Q153 530 137 491T120 364V227Q120 133 136
91T201 49Q244 49 285 88Z" />
<glyph unicode="r" glyph-name="r" horiz-adv-x="297" d="M61 578H135V499Q161 542 196 563T268 584Q275 584 281 583V505Q263 511 245 511Q176 511 135 444V0H61V578Z" />
<glyph unicode="s" glyph-name="s" horiz-adv-x="363" d="M120 -9T79 35T31 155L92 174Q98 108 123 77T193 46Q231 46 251 67T272 128Q272 185 202 244L123 312Q82 346 63 379T44 457Q44 518 81 552T182 587Q246 587 280 546T319 435L267 418Q261 532 185 532Q151
532 131 514T111 462Q111 435 121 415T158 371L240 298Q287 256 311 220T336 130Q336 64 296 28T188 -9Q120 -9 79 35Z" />
<glyph unicode="t" glyph-name="t" horiz-adv-x="280" d="M134 -7T112 25T89 120V530H18V578H89V757H162V578H258V530H162V127Q162 83 172 67T213 50Q232 50 255 55V-1Q224 -7 193 -7Q134 -7 112 25Z" />
<glyph unicode="u" glyph-name="u" horiz-adv-x="412" d="M97 -9T74 23T51 114V578H125V130Q125 86 138 68T180 49Q205 49 231 64T282 106V578H355V0H282V64Q253 30 217 11T141 -9Q97 -9 74 23Z" />
<glyph unicode="v" glyph-name="v" horiz-adv-x="368" d="M18 578H92L186 84L279 578H350L229 0H143L18 578Z" />
<glyph unicode="w" glyph-name="w" horiz-adv-x="574" d="M31 578H94L166 95L257 578H320L412 97L481 578H544L450 0H382L289 470L199 0H125L31 578Z" />
<glyph unicode="x" glyph-name="x" horiz-adv-x="380" d="M153 302L23 578H95L194 366L289 578H363L228 294L365 0H295L187 227L86 0H16L153 302Z" />
<glyph unicode="y" glyph-name="y" horiz-adv-x="381" d="M40 -87Q110 -87 134 -72T158 -27Q158 -8 150 27T139 69L20 578H93L193 86L290 578H364L224 -41Q211 -96 172 -120T59 -144H40V-87Z" />
<glyph unicode="z" glyph-name="z" horiz-adv-x="333" d="M32 51L229 522H53V578H306V534L110 56H303V0H32V51Z" />
<glyph unicode="{" glyph-name="braceleft" horiz-adv-x="258" d="M168 -165T140 -152T104 -100T96 37V166Q96 223 92 250T75 289T38 300V356Q63 356 75 367T91 406T96 491V616Q96 714 104 752T140 803T238 817V762Q202 762 190 754T174 719T171 616V475Q171 402
158 370T112 328Q144 320 157 288T171 181V37Q171 -40 174 -66T189 -101T238 -110V-165Q168 -165 140 -152Z" />
<glyph unicode="|" glyph-name="bar" horiz-adv-x="217" d="M74 810H143V-144H74V810Z" />
<glyph unicode="}" glyph-name="braceright" horiz-adv-x="269" d="M31 -110Q67 -110 79 -102T95 -67T98 37V181Q98 255 111 287T157 328Q125 337 112 369T98 475V616Q98 693 95 719T80 753T31 762V817Q101 817 129 804T165 752T173 616V491Q173 434 177 406T194
367T231 356V300Q206 300 194 289T178 251T173 166V37Q173 -61 165 -99T129 -151T31 -165V-110Z" />
<glyph unicode="~" glyph-name="asciitilde" horiz-adv-x="406" d="M257 374T240 381T197 404Q174 417 160 423T134 430Q110 430 65 390L39 424Q62 450 89 468T138 487Q154 487 171 479T213 457Q235 445 249 439T275 432Q288 432 302 440T342 470L368 436Q308
374 272 374Q257 374 240 381Z" />
<glyph unicode="&#xa0;" glyph-name="uni00A0" horiz-adv-x="204" />
<glyph unicode="&#xa1;" glyph-name="exclamdown" horiz-adv-x="201" d="M62 616H140V529H62V616ZM88 442H114L139 -194H61L88 442Z" />
<glyph unicode="&#xa2;" glyph-name="cent" horiz-adv-x="382" d="M173 -7Q96 1 71 57T45 219V354Q45 433 56 481T97 556T177 586V676H207V587Q288 584 317 538T347 402V374H279V402Q279 453 272 481T247 520T200 532Q166 532 149 516T125 466T118 366V204Q118
144 125 110T150 61T201 46Q235 46 251 60T273 104T279 185V217H347V189Q347 125 336 83T293 17T203 -9V-100H173V-7Z" />
<glyph unicode="&#xa3;" glyph-name="sterling" horiz-adv-x="375" d="M11 37L72 54V378H11V433H72V547Q72 637 82 694T126 784T227 818Q299 818 327 775T356 653V628H300Q300 697 286 728T226 760Q190 760 173 739T150 682T144 587V433H277V378H144V55H354V0H11V37Z" />
<glyph unicode="&#xa4;" glyph-name="currency" horiz-adv-x="526" d="M27 201L107 280Q81 308 67 345T52 423Q52 463 66 500T107 566L27 645L42 660L121 581Q149 608 186 622T264 637Q305 637 342 623T407 581L486 660L501 645L422 566Q447 537 461 501T475 423Q475
382 461 345T421 280L501 201L486 186L407 265Q378 238 342 223T264 209Q223 208 187 223T121 265L42 186L27 201ZM313 243T353 267T416 332T439 423Q439 472 416 513T353 579T264 603Q216 603 176 579T113 514T90 423Q90 374 113 333T176 267T264 243Q313 243
353 267Z" />
<glyph unicode="&#xa5;" glyph-name="yen" horiz-adv-x="434" d="M188 110H88V159H188V249H88V297H178L5 810H79L225 360L365 810H440L271 297H360V249H261V159H360V110H261V0H188V110Z" />
<glyph unicode="&#xa6;" glyph-name="brokenbar" horiz-adv-x="202" d="M71 810H132V394H71V810ZM71 245H132V-170H71V245Z" />
<glyph unicode="&#xa7;" glyph-name="section" horiz-adv-x="400" d="M138 -9T99 34T43 146L99 164Q112 116 138 84T203 51Q240 51 262 70T286 125Q288 151 275 176T216 244L104 336Q72 362 55 389T38 451Q38 496 63 526T127 571Q94 599 74 628T54 691Q54 748
94 783T201 818Q311 818 352 673L296 655Q280 700 259 729T199 758Q166 758 146 739T126 685Q126 648 181 597L294 512Q330 484 349 451T368 374Q368 292 290 251Q321 218 337 192T354 129Q354 64 313 28T203 -9Q138 -9 99 34ZM266 302T284 321T304 365Q307 393
294 417T250 468L172 532Q145 522 128 502T110 453Q110 418 144 386L243 291Q266 302 284 321Z" />
<glyph unicode="&#xa8;" glyph-name="dieresis" horiz-adv-x="383" d="M69 810H143V721H69V810ZM232 810H308V721H232V810Z" />
<glyph unicode="&#xa9;" glyph-name="copyright" horiz-adv-x="862" d="M296 -11T206 50T72 207T29 412Q29 520 72 616T205 773T431 834Q566 834 656 774T790 617T833 412Q833 303 791 207T658 50T431 -11Q296 -11 206 50ZM553 24T634 78T754 221T794 413Q794
515 755 603T634 745T433 799Q313 799 232 745T111 603T71 413Q71 310 110 222T231 79T433 24Q553 24 634 78ZM352 122T315 151T265 232T252 362V475Q252 566 267 618T318 696T423 721Q489 721 524 699T572 636T585 530V503H514V530Q514 585 505 613T477 653T424
664Q386 664 366 648T339 594T331 488V346Q331 282 339 247T368 196T425 180Q463 180 482 194T507 237T514 321V350H585V325Q585 256 573 213T526 146T423 122Q352 122 315 151Z" />
<glyph unicode="&#xaa;" glyph-name="ordfeminine" horiz-adv-x="411" d="M129 340T101 368T73 443Q73 486 93 513T154 562T277 616V659Q277 719 264 744T218 770Q186 770 168 749T149 681H88Q90 749 123 785T218 821Q288 821 314 780T341 645V346H284L282 407Q267
377 239 359T175 340Q129 340 101 368ZM221 394T242 410T277 452V583Q220 557 193 541T152 505T138 455Q138 424 154 409T194 394Q221 394 242 410Z" />
<glyph unicode="&#xab;" glyph-name="guillemotleft" horiz-adv-x="426" d="M37 302V334L203 550V456L98 319L203 179V86L37 302ZM200 302V334L367 550V456L261 318L367 179V86L200 302Z" />
<glyph unicode="&#xac;" glyph-name="logicalnot" horiz-adv-x="363" d="M291 386H41V443H334V274H291V386Z" />
<glyph unicode="&#xad;" glyph-name="uni00AD" horiz-adv-x="334" d="M57 427H281V370H57V427Z" />
<glyph unicode="&#xae;" glyph-name="registered" horiz-adv-x="876" d="M303 -12T214 48T82 204T39 408Q39 516 81 611T213 767T438 828Q573 828 663 768T795 612T838 408Q838 300 796 205T663 49T438 -12Q303 -12 214 48ZM555 27T635 80T753 221T792 408Q792
509 754 595T635 735T438 788Q320 788 241 735T123 596T84 408Q84 308 122 221T240 81T438 27Q555 27 635 80ZM299 702H462Q611 702 611 548Q611 494 589 457T518 408L619 123H551L458 397H364V123H299V702ZM446 436Q504 436 524 462T545 549Q545 603 525 629T456
656H364V436H446Z" />
<glyph unicode="&#xaf;" glyph-name="overscore" horiz-adv-x="326" d="M74 810H252V763H74V810Z" />
<glyph unicode="&#xb0;" glyph-name="degree" horiz-adv-x="413" d="M143 524T102 562T60 672Q60 743 101 780T207 818Q271 818 312 781T354 672Q354 600 313 562T207 524Q143 524 102 562ZM246 574T271 599T296 671Q296 719 271 744T206 770Q167 770 142 745T117
671Q117 624 142 599T207 574Q246 574 271 599Z" />
<glyph unicode="&#xb1;" glyph-name="plusminus" horiz-adv-x="339" d="M142 270H52V331H142V420H204V331H294V270H204V180H142V270ZM52 61H294V0H52V61Z" />
<glyph unicode="&#xb2;" glyph-name="uni00B2" horiz-adv-x="373" d="M48 480L172 613Q223 668 241 699T260 764Q260 802 242 823T187 845Q143 845 124 817T104 734H49V743Q49 812 84 855T188 898Q249 898 283 864T317 767Q317 721 296 684T221 591L121 484H328V433H48V480Z"
/>
<glyph unicode="&#xb3;" glyph-name="uni00B3" horiz-adv-x="366" d="M119 423T84 459T48 559V569H104V565Q104 476 186 476Q221 476 240 497T259 555Q259 638 178 638H159V688H175Q254 688 254 768Q254 803 236 824T184 845Q105 845 105 756V752H49V762Q49 828
85 863T184 898Q243 898 277 865T311 775Q311 732 292 703T243 664Q275 653 295 626T316 552Q316 492 280 458T184 423Q119 423 84 459Z" />
<glyph unicode="&#xb4;" glyph-name="acute" horiz-adv-x="233" d="M110 810H184L86 615H47L110 810Z" />
<glyph unicode="&#xb5;" glyph-name="uni00B5" horiz-adv-x="420" d="M51 578H125V130Q125 86 138 68T180 49Q205 49 231 64T282 106V578H355V0H282V64Q256 33 225 15T159 -4Q138 -4 125 4V-173H52L51 578Z" />
<glyph unicode="&#xb6;" glyph-name="paragraph" horiz-adv-x="485" d="M200 530Q121 529 75 565T29 669Q29 736 73 773T206 810H414V-95H360V768H254V-95H200V530Z" />
<glyph unicode="&#xb7;" glyph-name="middot" horiz-adv-x="188" d="M64 421H139V333H64V421Z" />
<glyph unicode="&#xb8;" glyph-name="cedilla" horiz-adv-x="314" d="M105 -204T80 -199V-161Q95 -165 112 -165Q178 -165 178 -124Q178 -81 103 -72V0H142V-50Q186 -51 210 -71T234 -125Q234 -164 206 -184T127 -204Q105 -204 80 -199Z" />
<glyph unicode="&#xb9;" glyph-name="uni00B9" horiz-adv-x="269" d="M135 820L43 772V822L160 888H192V433H135V820Z" />
<glyph unicode="&#xba;" glyph-name="ordmasculine" horiz-adv-x="411" d="M127 339T96 380T65 500V660Q65 738 97 779T206 821Q281 821 313 779T346 660V500Q346 424 314 382T206 339Q127 339 96 380ZM251 389T267 419T284 505V655Q284 711 268 741T204 771Q158
771 141 741T124 655V505Q124 450 141 420T204 389Q251 389 267 419Z" />
<glyph unicode="&#xbb;" glyph-name="guillemotright" horiz-adv-x="440" d="M54 179L164 318L54 456V550L226 334V302L54 86V179ZM218 179L328 317L218 456V550L389 334V302L218 86V179Z" />
<glyph unicode="&#xbc;" glyph-name="onequarter" horiz-adv-x="785" d="M140 998L48 950V1000L165 1066H197V611H140V998ZM531 810H593L217 0H154L531 810ZM606 120H434V166L625 455H662V168H706V120H662V0H606V120ZM606 168L605 342L492 168H606Z" />
<glyph unicode="&#xbd;" glyph-name="onehalf" horiz-adv-x="795" d="M351 998L259 950V1000L376 1066H408V611H351V998ZM486 810H548L172 0H109L486 810ZM453 47L577 180Q628 235 646 266T665 331Q665 369 647 390T592 412Q548 412 529 384T509 301H454V310Q454
379 489 422T593 465Q654 465 688 431T722 334Q722 288 701 251T626 158L526 51H733V0H453V47Z" />
<glyph unicode="&#xbe;" glyph-name="threequarters" horiz-adv-x="870" d="M374 599T339 635T303 735V745H359V741Q359 652 441 652Q476 652 495 673T514 731Q514 814 433 814H414V864H430Q509 864 509 944Q509 979 491 1000T439 1021Q360 1021 360 932V928H304V938Q304
1004 340 1039T439 1074Q498 1074 532 1041T566 951Q566 908 547 879T498 840Q530 829 550 802T571 728Q571 668 535 634T439 599Q374 599 339 635ZM594 810H656L280 0H217L594 810ZM669 120H497V166L688 455H725V168H769V120H725V0H669V120ZM669 168L668 342L555
168H669Z" />
<glyph unicode="&#xbf;" glyph-name="questiondown" horiz-adv-x="474" d="M289 287Q196 220 152 152T107 1Q107 -69 138 -105T227 -142Q276 -142 305 -116T335 -44Q335 -19 325 11L392 26Q406 -9 406 -43Q406 -118 357 -162T227 -206Q139 -206 88 -151T36 3Q36
97 82 166T225 307V411H289V287ZM292 525H220V612H292V525Z" />
<glyph unicode="&#xc0;" glyph-name="Agrave" horiz-adv-x="477" d="M198 810H278L450 0H375L335 217H142L101 0H27L198 810ZM325 272L239 709L153 272H325ZM128 1054H202L257 858H220L128 1054Z" />
<glyph unicode="&#xc1;" glyph-name="Aacute" horiz-adv-x="477" d="M198 810H278L450 0H375L335 217H142L101 0H27L198 810ZM325 272L239 709L153 272H325ZM283 1054H356L258 858H220L283 1054Z" />
<glyph unicode="&#xc2;" glyph-name="Acircumflex" horiz-adv-x="477" d="M198 810H278L450 0H375L335 217H142L101 0H27L198 810ZM325 272L239 709L153 272H325ZM198 1042H280L365 864H311L238 1005L166 864H111L198 1042Z" />
<glyph unicode="&#xc3;" glyph-name="Atilde" horiz-adv-x="477" d="M198 810H278L450 0H375L335 217H142L101 0H27L198 810ZM325 272L239 709L153 272H325ZM283 924T269 931T235 951Q218 962 208 967T186 972Q154 972 154 932H109Q109 965 124 992T178 1020Q195
1020 210 1014T243 994Q260 983 270 978T292 973Q309 973 317 983T325 1016H369Q369 979 355 952T300 924Q283 924 269 931Z" />
<glyph unicode="&#xc4;" glyph-name="Adieresis" horiz-adv-x="477" d="M198 810H278L450 0H375L335 217H142L101 0H27L198 810ZM325 272L239 709L153 272H325ZM120 1042H195V953H120V1042ZM285 1042H360V953H285V1042Z" />
<glyph unicode="&#xc5;" glyph-name="Aring" horiz-adv-x="477" d="M198 810H278L450 0H375L335 217H142L101 0H27L198 810ZM325 272L239 709L153 272H325ZM198 861T171 886T143 956Q143 1001 170 1026T239 1051Q280 1051 307 1026T335 956Q335 911 308 886T239
861Q198 861 171 886ZM263 901T278 915T294 956Q294 984 279 998T239 1012Q215 1012 200 998T184 956Q184 929 199 915T239 901Q263 901 278 915Z" />
<glyph unicode="&#xc6;" glyph-name="AE" horiz-adv-x="631" d="M296 810H599V749H383V451H538V393H383V60H599V0H306V217H136L52 0H-29L296 810ZM306 275V681L157 275H306Z" />
<glyph unicode="&#xc7;" glyph-name="Ccedilla" horiz-adv-x="499" d="M145 -10T100 57T54 243V565Q54 687 99 752T259 818Q363 818 407 759T451 588V539H379V586Q379 644 370 680T335 737T260 757Q207 757 179 735T141 675T131 576V231Q131 137 159 94T260 51Q331
51 355 94T379 227V280H451V232Q451 116 408 53T259 -10Q145 -10 100 57ZM232 -204T207 -199V-161Q222 -165 239 -165Q305 -165 305 -124Q305 -81 230 -72V0H269V-50Q313 -51 337 -71T361 -125Q361 -164 333 -184T254 -204Q232 -204 207 -199Z" />
<glyph unicode="&#xc8;" glyph-name="Egrave" horiz-adv-x="398" d="M70 810H363V751H147V447H323V391H147V57H365V0H70V810ZM109 1054H183L238 858H201L109 1054Z" />
<glyph unicode="&#xc9;" glyph-name="Eacute" horiz-adv-x="398" d="M70 810H363V751H147V447H323V391H147V57H365V0H70V810ZM264 1054H337L239 858H201L264 1054Z" />
<glyph unicode="&#xca;" glyph-name="Ecircumflex" horiz-adv-x="398" d="M70 810H363V751H147V447H323V391H147V57H365V0H70V810ZM179 1042H261L346 864H292L219 1005L147 864H92L179 1042Z" />
<glyph unicode="&#xcb;" glyph-name="Edieresis" horiz-adv-x="398" d="M70 810H363V751H147V447H323V391H147V57H365V0H70V810ZM101 1042H176V953H101V1042ZM266 1042H341V953H266V1042Z" />
<glyph unicode="&#xcc;" glyph-name="Igrave" horiz-adv-x="222" d="M73 810H149V0H73V810ZM0 1054H74L129 858H92L0 1054Z" />
<glyph unicode="&#xcd;" glyph-name="Iacute" horiz-adv-x="222" d="M73 810H149V0H73V810ZM155 1054H228L130 858H92L155 1054Z" />
<glyph unicode="&#xce;" glyph-name="Icircumflex" horiz-adv-x="222" d="M73 810H149V0H73V810ZM70 1042H152L237 864H183L110 1005L38 864H-17L70 1042Z" />
<glyph unicode="&#xcf;" glyph-name="Idieresis" horiz-adv-x="222" d="M73 810H149V0H73V810ZM-8 1042H67V953H-8V1042ZM157 1042H232V953H157V1042Z" />
<glyph unicode="&#xd0;" glyph-name="Eth" horiz-adv-x="545" d="M71 401H11V448H71V810H247Q367 810 417 749T467 572V250Q467 129 419 65T254 0H71V401ZM249 57Q310 57 340 82T380 150T389 262V564Q389 630 378 669T336 730T246 751H147V448H228V401H147V57H249Z" />
<glyph unicode="&#xd1;" glyph-name="Ntilde" horiz-adv-x="520" d="M71 810H126L384 181V810H450V0H396L137 636V0H71V810ZM304 924T290 931T256 951Q239 962 229 967T207 972Q175 972 175 932H130Q130 965 145 992T199 1020Q216 1020 231 1014T264 994Q281 983
291 978T313 973Q330 973 338 983T346 1016H390Q390 979 376 952T321 924Q304 924 290 931Z" />
<glyph unicode="&#xd2;" glyph-name="Ograve" horiz-adv-x="525" d="M149 -10T102 55T54 239V575Q54 693 102 755T263 818Q374 818 422 755T470 575V238Q470 119 423 55T263 -10Q149 -10 102 55ZM337 51T365 94T393 222V589Q393 673 366 715T263 757Q187 757 159
716T131 589V222Q131 137 159 94T263 51Q337 51 365 94ZM152 1054H226L281 858H244L152 1054Z" />
<glyph unicode="&#xd3;" glyph-name="Oacute" horiz-adv-x="525" d="M149 -10T102 55T54 239V575Q54 693 102 755T263 818Q374 818 422 755T470 575V238Q470 119 423 55T263 -10Q149 -10 102 55ZM337 51T365 94T393 222V589Q393 673 366 715T263 757Q187 757 159
716T131 589V222Q131 137 159 94T263 51Q337 51 365 94ZM307 1054H380L282 858H244L307 1054Z" />
<glyph unicode="&#xd4;" glyph-name="Ocircumflex" horiz-adv-x="525" d="M149 -10T102 55T54 239V575Q54 693 102 755T263 818Q374 818 422 755T470 575V238Q470 119 423 55T263 -10Q149 -10 102 55ZM337 51T365 94T393 222V589Q393 673 366 715T263 757Q187
757 159 716T131 589V222Q131 137 159 94T263 51Q337 51 365 94ZM222 1042H304L389 864H335L262 1005L190 864H135L222 1042Z" />
<glyph unicode="&#xd5;" glyph-name="Otilde" horiz-adv-x="525" d="M149 -10T102 55T54 239V575Q54 693 102 755T263 818Q374 818 422 755T470 575V238Q470 119 423 55T263 -10Q149 -10 102 55ZM337 51T365 94T393 222V589Q393 673 366 715T263 757Q187 757 159
716T131 589V222Q131 137 159 94T263 51Q337 51 365 94ZM307 924T293 931T259 951Q242 962 232 967T210 972Q178 972 178 932H133Q133 965 148 992T202 1020Q219 1020 234 1014T267 994Q284 983 294 978T316 973Q333 973 341 983T349 1016H393Q393 979 379 952T324
924Q307 924 293 931Z" />
<glyph unicode="&#xd6;" glyph-name="Odieresis" horiz-adv-x="525" d="M149 -10T102 55T54 239V575Q54 693 102 755T263 818Q374 818 422 755T470 575V238Q470 119 423 55T263 -10Q149 -10 102 55ZM337 51T365 94T393 222V589Q393 673 366 715T263 757Q187 757
159 716T131 589V222Q131 137 159 94T263 51Q337 51 365 94ZM144 1042H219V953H144V1042ZM309 1042H384V953H309V1042Z" />
<glyph unicode="&#xd7;" glyph-name="multiply" horiz-adv-x="353" d="M41 294L139 392L41 490L79 528L177 430L274 528L313 490L214 392L313 294L274 255L177 354L79 255L41 294Z" />
<glyph unicode="&#xd8;" glyph-name="Oslash" horiz-adv-x="529" d="M470 733T470 575V238Q470 119 423 55T263 -10Q209 -10 167 6L141 -87L110 -78L138 21Q93 50 74 105T54 239V575Q54 693 102 755T263 818Q315 818 357 802L382 890L413 882L386 787Q470 733
470 575ZM131 179T137 148T159 95L340 739Q311 757 263 757Q187 757 159 716T131 589V222Q131 179 137 148ZM393 589Q393 632 387 662T366 714L185 70Q215 51 263 51Q337 51 365 94T393 222V589Z" />
<glyph unicode="&#xd9;" glyph-name="Ugrave" horiz-adv-x="537" d="M152 -10T107 49T62 221V810H136V219Q136 139 164 95T269 51Q342 51 372 95T402 219V810H475V221Q475 111 429 51T269 -10Q152 -10 107 49ZM158 1054H232L287 858H250L158 1054Z" />
<glyph unicode="&#xda;" glyph-name="Uacute" horiz-adv-x="537" d="M152 -10T107 49T62 221V810H136V219Q136 139 164 95T269 51Q342 51 372 95T402 219V810H475V221Q475 111 429 51T269 -10Q152 -10 107 49ZM313 1054H386L288 858H250L313 1054Z" />
<glyph unicode="&#xdb;" glyph-name="Ucircumflex" horiz-adv-x="537" d="M152 -10T107 49T62 221V810H136V219Q136 139 164 95T269 51Q342 51 372 95T402 219V810H475V221Q475 111 429 51T269 -10Q152 -10 107 49ZM228 1042H310L395 864H341L268 1005L196 864H141L228
1042Z" />
<glyph unicode="&#xdc;" glyph-name="Udieresis" horiz-adv-x="537" d="M152 -10T107 49T62 221V810H136V219Q136 139 164 95T269 51Q342 51 372 95T402 219V810H475V221Q475 111 429 51T269 -10Q152 -10 107 49ZM150 1042H225V953H150V1042ZM315 1042H390V953H315V1042Z" />
<glyph unicode="&#xdd;" glyph-name="Yacute" horiz-adv-x="469" d="M200 269L17 810H91L237 360L377 810H452L274 269V0H200V269ZM279 1054H352L254 858H216L279 1054Z" />
<glyph unicode="&#xde;" glyph-name="Thorn" horiz-adv-x="504" d="M71 810H147V705H286Q385 705 431 643T477 479Q477 375 430 310T275 244H147V0H71V810ZM260 308Q333 308 367 347T401 478Q401 564 368 602T267 641H147V308H260Z" />
<glyph unicode="&#xdf;" glyph-name="germandbls" horiz-adv-x="496" d="M190 51Q296 51 335 101T374 235Q374 312 340 360T229 409L230 471Q287 471 312 514T337 625Q337 695 314 730T235 766Q182 766 159 733T135 612V0H62V611Q62 725 104 775T234 825Q318 825
363 775T408 625Q408 483 311 446Q380 429 413 373T446 237Q446 -10 190 -10V51Z" />
<glyph unicode="&#xe0;" glyph-name="agrave" horiz-adv-x="397" d="M104 -9T72 28T40 120Q40 177 62 214T132 280T273 351V392Q273 446 267 476T245 519T201 532Q120 532 120 433V413L48 414Q49 503 86 545T205 587Q281 587 313 541T346 396V115Q346 87 347 51T351
0H286L275 80Q262 42 231 17T156 -9Q104 -9 72 28ZM209 53T233 73T273 122V302Q205 266 175 246T129 202T113 138Q113 95 131 74T179 53Q209 53 233 73ZM93 822H167L222 626H185L93 822Z" />
<glyph unicode="&#xe1;" glyph-name="aacute" horiz-adv-x="397" d="M104 -9T72 28T40 120Q40 177 62 214T132 280T273 351V392Q273 446 267 476T245 519T201 532Q120 532 120 433V413L48 414Q49 503 86 545T205 587Q281 587 313 541T346 396V115Q346 87 347 51T351
0H286L275 80Q262 42 231 17T156 -9Q104 -9 72 28ZM209 53T233 73T273 122V302Q205 266 175 246T129 202T113 138Q113 95 131 74T179 53Q209 53 233 73ZM248 822H321L223 626H185L248 822Z" />
<glyph unicode="&#xe2;" glyph-name="acircumflex" horiz-adv-x="397" d="M104 -9T72 28T40 120Q40 177 62 214T132 280T273 351V392Q273 446 267 476T245 519T201 532Q120 532 120 433V413L48 414Q49 503 86 545T205 587Q281 587 313 541T346 396V115Q346 87
347 51T351 0H286L275 80Q262 42 231 17T156 -9Q104 -9 72 28ZM209 53T233 73T273 122V302Q205 266 175 246T129 202T113 138Q113 95 131 74T179 53Q209 53 233 73ZM163 810H245L330 632H276L203 773L131 632H76L163 810Z" />
<glyph unicode="&#xe3;" glyph-name="atilde" horiz-adv-x="397" d="M104 -9T72 28T40 120Q40 177 62 214T132 280T273 351V392Q273 446 267 476T245 519T201 532Q120 532 120 433V413L48 414Q49 503 86 545T205 587Q281 587 313 541T346 396V115Q346 87 347 51T351
0H286L275 80Q262 42 231 17T156 -9Q104 -9 72 28ZM209 53T233 73T273 122V302Q205 266 175 246T129 202T113 138Q113 95 131 74T179 53Q209 53 233 73ZM248 692T234 699T200 719Q183 730 173 735T151 740Q119 740 119 700H74Q74 733 89 760T143 788Q160 788 175
782T208 762Q225 751 235 746T257 741Q274 741 282 751T290 784H334Q334 747 320 720T265 692Q248 692 234 699Z" />
<glyph unicode="&#xe4;" glyph-name="adieresis" horiz-adv-x="397" d="M104 -9T72 28T40 120Q40 177 62 214T132 280T273 351V392Q273 446 267 476T245 519T201 532Q120 532 120 433V413L48 414Q49 503 86 545T205 587Q281 587 313 541T346 396V115Q346 87 347
51T351 0H286L275 80Q262 42 231 17T156 -9Q104 -9 72 28ZM209 53T233 73T273 122V302Q205 266 175 246T129 202T113 138Q113 95 131 74T179 53Q209 53 233 73ZM85 810H160V721H85V810ZM250 810H325V721H250V810Z" />
<glyph unicode="&#xe5;" glyph-name="aring" horiz-adv-x="397" d="M104 -9T72 28T40 120Q40 177 62 214T132 280T273 351V392Q273 446 267 476T245 519T201 532Q120 532 120 433V413L48 414Q49 503 86 545T205 587Q281 587 313 541T346 396V115Q346 87 347 51T351
0H286L275 80Q262 42 231 17T156 -9Q104 -9 72 28ZM209 53T233 73T273 122V302Q205 266 175 246T129 202T113 138Q113 95 131 74T179 53Q209 53 233 73ZM163 629T136 654T108 724Q108 769 135 794T204 819Q245 819 272 794T300 724Q300 679 273 654T204 629Q163
629 136 654ZM228 669T243 683T259 724Q259 752 244 766T204 780Q180 780 165 766T149 724Q149 697 164 683T204 669Q228 669 243 683Z" />
<glyph unicode="&#xe6;" glyph-name="ae" horiz-adv-x="622" d="M579 197V165Q579 82 545 37T433 -9Q378 -9 344 20T302 108Q287 48 250 20T164 -9Q106 -9 73 26T40 120Q40 187 72 228T190 298L274 325V406Q274 474 256 502T195 530Q159 530 139 505T118 424L47
425Q47 503 85 545T194 587Q240 587 270 564T311 499Q323 543 359 565T443 587Q507 587 540 554T574 464Q574 402 542 372T444 323L348 293V198Q348 120 366 85T428 50Q465 50 485 75T506 163V197H579ZM348 337L432 364Q474 378 490 397T507 455Q507 487 490 507T434
528Q390 528 369 496T348 389V337ZM274 279L211 256Q152 233 132 206T112 132Q112 90 132 69T181 48Q222 48 248 84T274 200V279Z" />
<glyph unicode="&#xe7;" glyph-name="ccedilla" horiz-adv-x="389" d="M136 -9T102 19T57 96T45 219V354Q45 438 58 488T105 562T200 587Q285 587 316 541T347 402V374H279V402Q279 453 272 481T247 520T200 532Q166 532 149 516T125 466T118 366V204Q118 144
125 110T150 61T201 46Q235 46 251 60T273 104T279 185V217H347V189Q347 124 336 82T292 15T200 -9Q136 -9 102 19ZM177 -204T152 -199V-161Q167 -165 184 -165Q250 -165 250 -124Q250 -81 175 -72V0H214V-50Q258 -51 282 -71T306 -125Q306 -164 278 -184T199 -204Q177
-204 152 -199Z" />
<glyph unicode="&#xe8;" glyph-name="egrave" horiz-adv-x="395" d="M145 -9T111 13T61 84T45 217V363Q45 448 61 496T112 566T202 587Q262 587 294 562T339 485T352 348V296H118V195Q118 112 137 79T201 46Q239 46 259 70T280 157V197H351V165Q351 81 316 36T201
-9Q145 -9 111 13ZM280 338V386Q280 438 275 468T252 515T201 532Q170 532 152 519T126 472T118 377V338H280ZM87 822H161L216 626H179L87 822Z" />
<glyph unicode="&#xe9;" glyph-name="eacute" horiz-adv-x="395" d="M145 -9T111 13T61 84T45 217V363Q45 448 61 496T112 566T202 587Q262 587 294 562T339 485T352 348V296H118V195Q118 112 137 79T201 46Q239 46 259 70T280 157V197H351V165Q351 81 316 36T201
-9Q145 -9 111 13ZM280 338V386Q280 438 275 468T252 515T201 532Q170 532 152 519T126 472T118 377V338H280ZM242 822H315L217 626H179L242 822Z" />
<glyph unicode="&#xea;" glyph-name="ecircumflex" horiz-adv-x="395" d="M145 -9T111 13T61 84T45 217V363Q45 448 61 496T112 566T202 587Q262 587 294 562T339 485T352 348V296H118V195Q118 112 137 79T201 46Q239 46 259 70T280 157V197H351V165Q351 81 316
36T201 -9Q145 -9 111 13ZM280 338V386Q280 438 275 468T252 515T201 532Q170 532 152 519T126 472T118 377V338H280ZM157 810H239L324 632H270L197 773L125 632H70L157 810Z" />
<glyph unicode="&#xeb;" glyph-name="edieresis" horiz-adv-x="395" d="M145 -9T111 13T61 84T45 217V363Q45 448 61 496T112 566T202 587Q262 587 294 562T339 485T352 348V296H118V195Q118 112 137 79T201 46Q239 46 259 70T280 157V197H351V165Q351 81 316
36T201 -9Q145 -9 111 13ZM280 338V386Q280 438 275 468T252 515T201 532Q170 532 152 519T126 472T118 377V338H280ZM79 810H154V721H79V810ZM244 810H319V721H244V810Z" />
<glyph unicode="&#xec;" glyph-name="igrave" horiz-adv-x="198" d="M64 578H137V0H64V578ZM-10 822H64L119 626H82L-10 822Z" />
<glyph unicode="&#xed;" glyph-name="iacute" horiz-adv-x="198" d="M64 578H137V0H64V578ZM145 822H218L120 626H82L145 822Z" />
<glyph unicode="&#xee;" glyph-name="icircumflex" horiz-adv-x="198" d="M64 578H137V0H64V578ZM60 810H142L227 632H173L100 773L28 632H-27L60 810Z" />
<glyph unicode="&#xef;" glyph-name="idieresis" horiz-adv-x="198" d="M64 578H137V0H64V578ZM-18 810H57V721H-18V810ZM147 810H222V721H147V810Z" />
<glyph unicode="&#xf0;" glyph-name="eth" horiz-adv-x="445" d="M54 -10T54 224V298Q55 425 91 490T208 556Q257 556 306 526Q301 566 292 603T271 662L162 631V671L251 696Q230 733 189 752T80 775L83 825Q169 822 223 797T309 715L403 741V700L328 680Q352
626 369 540T387 349V244Q387 116 351 53T223 -10Q54 -10 54 224ZM262 49T281 70T307 136T314 259Q314 314 309 436L308 469Q285 482 266 489T226 497Q174 497 151 444T127 267Q127 153 148 101T225 49Q262 49 281 70Z" />
<glyph unicode="&#xf1;" glyph-name="ntilde" horiz-adv-x="409" d="M56 578H129V518Q158 550 193 568T268 587Q311 587 334 555T357 464V0H284V448Q284 492 271 511T229 530Q205 530 179 516T129 476V0H56V578ZM249 692T235 699T201 719Q184 730 174 735T152
740Q120 740 120 700H75Q75 733 90 760T144 788Q161 788 176 782T209 762Q226 751 236 746T258 741Q275 741 283 751T291 784H335Q335 747 321 720T266 692Q249 692 235 699Z" />
<glyph unicode="&#xf2;" glyph-name="ograve" horiz-adv-x="399" d="M113 -9T79 44T45 209V369Q45 480 79 533T199 587Q286 587 320 534T354 369V209Q354 98 320 45T199 -9Q113 -9 79 44ZM235 46T252 65T275 116T280 205V373Q280 429 275 461T253 513T199 532Q163
532 146 513T124 462T119 373V205Q119 149 124 117T146 65T199 46Q235 46 252 65ZM89 822H163L218 626H181L89 822Z" />
<glyph unicode="&#xf3;" glyph-name="oacute" horiz-adv-x="399" d="M113 -9T79 44T45 209V369Q45 480 79 533T199 587Q286 587 320 534T354 369V209Q354 98 320 45T199 -9Q113 -9 79 44ZM235 46T252 65T275 116T280 205V373Q280 429 275 461T253 513T199 532Q163
532 146 513T124 462T119 373V205Q119 149 124 117T146 65T199 46Q235 46 252 65ZM244 822H317L219 626H181L244 822Z" />
<glyph unicode="&#xf4;" glyph-name="ocircumflex" horiz-adv-x="399" d="M113 -9T79 44T45 209V369Q45 480 79 533T199 587Q286 587 320 534T354 369V209Q354 98 320 45T199 -9Q113 -9 79 44ZM235 46T252 65T275 116T280 205V373Q280 429 275 461T253 513T199
532Q163 532 146 513T124 462T119 373V205Q119 149 124 117T146 65T199 46Q235 46 252 65ZM159 810H241L326 632H272L199 773L127 632H72L159 810Z" />
<glyph unicode="&#xf5;" glyph-name="otilde" horiz-adv-x="399" d="M113 -9T79 44T45 209V369Q45 480 79 533T199 587Q286 587 320 534T354 369V209Q354 98 320 45T199 -9Q113 -9 79 44ZM235 46T252 65T275 116T280 205V373Q280 429 275 461T253 513T199 532Q163
532 146 513T124 462T119 373V205Q119 149 124 117T146 65T199 46Q235 46 252 65ZM244 692T230 699T196 719Q179 730 169 735T147 740Q115 740 115 700H70Q70 733 85 760T139 788Q156 788 171 782T204 762Q221 751 231 746T253 741Q270 741 278 751T286 784H330Q330
747 316 720T261 692Q244 692 230 699Z" />
<glyph unicode="&#xf6;" glyph-name="odieresis" horiz-adv-x="399" d="M113 -9T79 44T45 209V369Q45 480 79 533T199 587Q286 587 320 534T354 369V209Q354 98 320 45T199 -9Q113 -9 79 44ZM235 46T252 65T275 116T280 205V373Q280 429 275 461T253 513T199 532Q163
532 146 513T124 462T119 373V205Q119 149 124 117T146 65T199 46Q235 46 252 65ZM81 810H156V721H81V810ZM246 810H321V721H246V810Z" />
<glyph unicode="&#xf7;" glyph-name="divide" horiz-adv-x="337" d="M137 623H199V533H137V623ZM26 443H311V387H26V443ZM137 287H199V196H137V287Z" />
<glyph unicode="&#xf8;" glyph-name="oslash" horiz-adv-x="398" d="M354 494T354 369V209Q354 98 320 45T199 -9Q149 -9 116 9L85 -76L60 -68L94 26Q68 52 57 97T45 209V369Q45 480 79 533T199 587Q255 587 290 564L320 647L347 637L313 543Q354 494 354 369ZM119
141T125 111L265 495Q256 514 240 523T199 532Q163 532 146 513T124 462T119 373V205Q119 141 125 111ZM280 373Q280 425 277 447L140 73Q159 46 199 46Q235 46 252 65T275 116T280 205V373Z" />
<glyph unicode="&#xf9;" glyph-name="ugrave" horiz-adv-x="412" d="M97 -9T74 23T51 114V578H125V130Q125 86 138 68T180 49Q205 49 231 64T282 106V578H355V0H282V64Q253 30 217 11T141 -9Q97 -9 74 23ZM95 822H169L224 626H187L95 822Z" />
<glyph unicode="&#xfa;" glyph-name="uacute" horiz-adv-x="412" d="M97 -9T74 23T51 114V578H125V130Q125 86 138 68T180 49Q205 49 231 64T282 106V578H355V0H282V64Q253 30 217 11T141 -9Q97 -9 74 23ZM250 822H323L225 626H187L250 822Z" />
<glyph unicode="&#xfb;" glyph-name="ucircumflex" horiz-adv-x="412" d="M97 -9T74 23T51 114V578H125V130Q125 86 138 68T180 49Q205 49 231 64T282 106V578H355V0H282V64Q253 30 217 11T141 -9Q97 -9 74 23ZM165 810H247L332 632H278L205 773L133 632H78L165 810Z" />
<glyph unicode="&#xfc;" glyph-name="udieresis" horiz-adv-x="412" d="M97 -9T74 23T51 114V578H125V130Q125 86 138 68T180 49Q205 49 231 64T282 106V578H355V0H282V64Q253 30 217 11T141 -9Q97 -9 74 23ZM87 810H162V721H87V810ZM252 810H327V721H252V810Z" />
<glyph unicode="&#xfd;" glyph-name="yacute" horiz-adv-x="381" d="M40 -87Q110 -87 134 -72T158 -27Q158 -8 150 27T139 69L20 578H93L193 86L290 578H364L224 -41Q211 -96 172 -120T59 -144H40V-87ZM235 822H308L210 626H172L235 822Z" />
<glyph unicode="&#xfe;" glyph-name="thorn" horiz-adv-x="416" d="M57 810H130V530Q175 587 241 587Q317 587 344 524T372 357V235Q372 116 341 54T233 -9Q177 -9 130 46V-190H57V810ZM267 49T282 92T298 233V357Q298 419 293 455T270 511T220 530Q175 530 130
485V91Q147 72 170 61T221 49Q267 49 282 92Z" />
<glyph unicode="&#xff;" glyph-name="ydieresis" horiz-adv-x="381" d="M40 -87Q110 -87 134 -72T158 -27Q158 -8 150 27T139 69L20 578H93L193 86L290 578H364L224 -41Q211 -96 172 -120T59 -144H40V-87ZM72 810H147V721H72V810ZM237 810H312V721H237V810Z" />
<glyph unicode="&#x2013;" glyph-name="endash" horiz-adv-x="471" d="M41 270H436V210H41V270Z" />
<glyph unicode="&#x2014;" glyph-name="emdash" horiz-adv-x="829" d="M41 305H794V246H41V305Z" />
<glyph unicode="&#x2018;" glyph-name="quoteleft" horiz-adv-x="173" d="M32 694Q32 759 48 793T105 838L122 813Q95 801 86 779T76 709H117V610H32V694Z" />
<glyph unicode="&#x2019;" glyph-name="quoteright" horiz-adv-x="174" d="M51 608Q78 618 87 640T97 711H57V810H141V726Q141 661 126 627T69 581L51 608Z" />
<glyph unicode="&#x201a;" glyph-name="quotesinglbase" horiz-adv-x="174" d="M51 -93Q78 -83 87 -61T97 10H57V109H141V25Q141 -40 126 -74T69 -120L51 -93Z" />
<glyph unicode="&#x201c;" glyph-name="quotedblleft" horiz-adv-x="308" d="M32 694Q32 759 48 793T105 838L122 813Q95 801 86 779T76 709H117V610H32V694ZM167 694Q167 759 183 793T240 838L257 813Q230 801 221 779T211 709H252V610H167V694Z" />
<glyph unicode="&#x201d;" glyph-name="quotedblright" horiz-adv-x="309" d="M51 608Q78 618 87 640T97 711H57V810H141V726Q141 661 126 627T69 581L51 608ZM186 608Q213 618 222 640T232 711H192V810H276V726Q276 661 261 627T204 581L186 608Z" />
<glyph unicode="&#x201e;" glyph-name="quotedblbase" horiz-adv-x="309" d="M186 -93Q213 -83 222 -61T232 10H192V109H276V25Q276 -40 261 -74T204 -120L186 -93ZM51 -93Q78 -83 87 -61T97 10H57V109H141V25Q141 -40 126 -74T69 -120L51 -93Z" />
<glyph unicode="&#x2022;" glyph-name="bullet" horiz-adv-x="302" d="M108 297T85 323T61 389Q61 430 84 455T150 481Q193 481 217 456T241 389Q241 348 217 323T150 297Q108 297 85 323Z" />
<glyph unicode="&#x2039;" glyph-name="guilsinglleft" horiz-adv-x="326" d="M99 302V334L285 550V456L161 318L285 179V86L99 302Z" />
<glyph unicode="&#x203a;" glyph-name="guilsinglright" horiz-adv-x="316" d="M74 208L199 347L74 486V579L260 363V330L74 115V208Z" />
</font>
</defs>
</svg>
