<?xml version="1.0" standalone="no"?>
<!DOCTYPE svg PUBLIC "-//W3C//DTD SVG 1.1//EN" "http://www.w3.org/Graphics/SVG/1.1/DTD/svg11.dtd">
<svg xmlns="http://www.w3.org/2000/svg">
<defs >
<font id="Oswald" horiz-adv-x="512" ><font-face
    font-family="Oswald"
    units-per-em="1000"
    panose-1="0 0 8 0 0 0 0 0 0 0"
    ascent="1193"
    descent="-289"
    alphabetic="0" />
<glyph unicode=" " glyph-name="space" horiz-adv-x="256" />
<glyph unicode="!" glyph-name="exclam" horiz-adv-x="257" d="M49 808H211L152 206H96L49 808ZM46 152H200V0H46V152Z" />
<glyph unicode="&quot;" glyph-name="quotedbl" horiz-adv-x="360" d="M25 810H164L99 509H25V810ZM209 810H348L284 509H209V810Z" />
<glyph unicode="#" glyph-name="numbersign" horiz-adv-x="534" d="M102 269H47L50 370H116L130 486H51L53 590H148L173 810H279L253 590H331L356 810H461L435 590H488L485 486H417L404 370H483L480 269H390L357 0H253L285 269H207L175 0H71L102 269ZM299 370L313
486H235L220 370H299Z" />
<glyph unicode="$" glyph-name="dollar" horiz-adv-x="485" d="M232 -11Q128 -6 77 55T22 245L175 268Q176 191 193 158T245 124Q290 124 290 183Q290 230 269 263T202 337L131 398Q77 446 50 492T22 609Q22 703 75 757T223 819V914H274V820Q377 814 412 749T451
591L296 572Q294 636 285 663T244 690Q220 690 208 671T195 627Q195 584 214 557T273 494L341 435Q401 380 433 325T466 192Q466 111 417 55T283 -10V-110H232V-11Z" />
<glyph unicode="%" glyph-name="percent" horiz-adv-x="1006" d="M133 350T89 402T45 565V601Q45 713 87 762T234 811Q338 811 381 763T424 603V563Q424 453 380 402T234 350Q133 350 89 402ZM581 810H671L423 0H332L581 810ZM259 454T271 467T286 503T289 571V596Q289
641 286 662T272 695T234 706Q208 706 197 695T182 663T179 597V570Q179 506 189 480T234 454Q259 454 271 467ZM669 -1T626 51T582 214V250Q582 362 624 411T770 460Q874 460 917 412T960 252V213Q960 103 916 51T770 -1Q669 -1 626 51ZM795 103T807 116T822 152T825
219V246Q825 291 822 312T808 344T770 355Q744 355 733 344T718 312T715 246V219Q715 155 725 129T770 103Q795 103 807 116Z" />
<glyph unicode="&amp;" glyph-name="ampersand" horiz-adv-x="570" d="M145 -12T92 40T39 182Q39 254 68 311T154 427Q115 494 94 545T73 644Q73 721 120 771T250 822Q327 822 376 774T425 650Q425 604 409 566T371 500T312 433L288 407L383 229Q395 250 403 300T413
398H523Q523 315 508 256T462 140Q472 127 490 118T528 107V-12Q524 -13 517 -14T500 -15Q465 -15 433 5T376 56Q322 -12 231 -12Q145 -12 92 40ZM264 523T281 570T299 653Q299 678 286 692T252 707Q231 707 218 690T205 644Q205 582 242 493Q264 523 281 570ZM280
97T309 139L210 322Q168 254 168 189Q168 148 186 123T237 97Q280 97 309 139Z" />
<glyph unicode="&apos;" glyph-name="quotesingle" horiz-adv-x="170" d="M25 810H158L104 509H25V810Z" />
<glyph unicode="(" glyph-name="parenleft" horiz-adv-x="338" d="M199 -179T147 -113T78 57T62 316Q62 480 77 585T146 754T303 819V705Q266 705 247 661T220 534T212 316Q212 183 220 101T248 -22T303 -64V-179Q199 -179 147 -113Z" />
<glyph unicode=")" glyph-name="parenright" horiz-adv-x="328" d="M35 -64Q70 -64 89 -22T117 101T125 317Q125 453 118 535T92 661T35 705V819Q139 819 192 755T260 586T276 317Q276 162 260 58T192 -113T35 -179V-64Z" />
<glyph unicode="*" glyph-name="asterisk" horiz-adv-x="423" d="M75 507L147 609L40 650L76 747L173 693L160 810H282L269 693L367 747L403 649L295 608L368 507L271 450L221 556L170 450L75 507Z" />
<glyph unicode="+" glyph-name="plus" horiz-adv-x="448" d="M170 367H26V462H170V618H278V462H423V367H278V207H170V367Z" />
<glyph unicode="," glyph-name="comma" horiz-adv-x="238" d="M58 -87Q90 -79 109 -60T129 0H43V154H198V21Q196 -130 68 -140L58 -87Z" />
<glyph unicode="-" glyph-name="hyphen" horiz-adv-x="386" d="M64 403H323V299H64V403Z" />
<glyph unicode="." glyph-name="period" horiz-adv-x="244" d="M46 154H200V0H46V154Z" />
<glyph unicode="/" glyph-name="slash" horiz-adv-x="422" d="M291 810H379L130 0H43L291 810Z" />
<glyph unicode="0" glyph-name="zero" horiz-adv-x="550" d="M168 -15T111 48T54 217V584Q54 695 109 758T275 822Q385 822 440 759T495 584V217Q495 112 438 49T275 -15Q168 -15 111 48ZM306 134T315 160T325 221V580Q325 620 317 646T275 673Q242 673 234 647T225
580V221Q225 134 275 134Q306 134 315 160Z" />
<glyph unicode="1" glyph-name="one" horiz-adv-x="389" d="M133 645Q122 639 75 619Q67 616 50 609T22 596V720Q142 782 169 810H300V0H133V645Z" />
<glyph unicode="2" glyph-name="two" horiz-adv-x="514" d="M41 118L235 416L247 434Q285 491 303 529T321 610Q321 644 308 661T269 679Q231 679 216 650T201 568V528H39V571Q39 685 94 753T266 821Q373 821 429 765T486 607Q486 561 472 520T437 446T375 352L227
131H464V0H41V118Z" />
<glyph unicode="3" glyph-name="three" horiz-adv-x="514" d="M140 -15T89 51T38 239V268H205V239Q205 177 217 152T264 126Q296 126 307 151T318 234Q318 298 300 327T233 358H202V473H229Q280 473 299 500T318 592Q318 641 305 665T259 689Q228 689 217 664T205
589V547H38V596Q38 705 96 763T259 822Q365 822 424 766T483 603Q483 534 455 486T384 425Q430 408 456 364T483 238Q483 120 430 53T261 -15Q140 -15 89 51Z" />
<glyph unicode="4" glyph-name="four" horiz-adv-x="524" d="M274 182H25V305L236 810H430V306H505V182H430V0H274V182ZM274 306V643L152 306H274Z" />
<glyph unicode="5" glyph-name="five" horiz-adv-x="509" d="M169 -15T123 15T60 100T43 237H204Q204 166 215 138T261 109Q288 109 300 127T316 179T319 278Q319 346 306 381T256 417Q205 417 192 343H48L63 810H441V670H197L188 503Q199 519 234 530T307 542Q389
542 432 474T476 282Q476 185 459 122T394 22T255 -15Q169 -15 123 15Z" />
<glyph unicode="6" glyph-name="six" horiz-adv-x="538" d="M162 -12T107 60T52 254V547Q52 679 100 750T275 821Q387 821 434 770T481 613L482 599H325Q325 653 317 674T276 695Q253 695 242 681T226 634T222 534V462Q235 483 263 495T327 507Q415 507 456 443T497
274Q497 136 447 62T276 -12Q162 -12 107 60ZM310 111T319 142T329 248Q329 297 326 322T312 363T276 379Q259 379 244 369T222 347V215Q222 111 278 111Q310 111 319 142Z" />
<glyph unicode="7" glyph-name="seven" horiz-adv-x="439" d="M241 683H20V810H404V695L228 0H65L241 683Z" />
<glyph unicode="8" glyph-name="eight" horiz-adv-x="521" d="M143 -13T91 53T38 237Q38 302 61 352T132 426Q97 452 74 498T51 611Q51 710 105 765T260 821Q360 821 413 766T467 614Q467 545 446 498T388 426Q435 403 458 351T482 230Q482 116 429 52T260 -13Q143
-13 91 53ZM310 486T310 607Q310 648 297 672T260 696Q235 696 222 673T208 608Q208 486 260 486Q310 486 310 607ZM287 110T299 131T314 178T317 242Q317 294 306 324T260 354Q225 354 214 321T203 228Q203 178 214 144T260 110Q287 110 299 131Z" />
<glyph unicode="9" glyph-name="nine" horiz-adv-x="538" d="M148 -12T102 39T55 197V210H211Q211 156 220 135T262 114Q285 114 295 128T310 175T314 275V347Q301 326 273 314T210 302Q122 302 81 370T39 545Q39 678 91 749T261 821Q376 821 430 754T484 564V262Q484
131 435 60T261 -12Q148 -12 102 39ZM293 430T314 462V594Q314 642 303 670T261 698Q229 698 220 667T210 561Q210 512 213 487T227 446T263 430Q293 430 314 462Z" />
<glyph unicode=":" glyph-name="colon" horiz-adv-x="278" d="M67 564H219V412H67V564ZM67 208H219V56H67V208Z" />
<glyph unicode=";" glyph-name="semicolon" horiz-adv-x="285" d="M67 575H220V422H67V575ZM81 -65Q152 -53 152 17H68V170H221V37Q221 -38 189 -77T92 -117L81 -65Z" />
<glyph unicode="&lt;" glyph-name="less" horiz-adv-x="398" d="M31 317V443L341 660V519L148 380L341 241V100L31 317Z" />
<glyph unicode="=" glyph-name="equal" horiz-adv-x="443" d="M63 536H380V437H63V536ZM63 346H380V247H63V346Z" />
<glyph unicode="&gt;" glyph-name="greater" horiz-adv-x="398" d="M54 241L248 381L54 519V660L364 443V317L54 100V241Z" />
<glyph unicode="?" glyph-name="question" horiz-adv-x="484" d="M129 342Q201 398 244 468T288 612Q288 682 235 682Q211 682 198 668T184 629Q184 605 196 574L49 540Q32 589 32 634Q32 722 86 771T239 821Q339 821 394 768T449 617Q449 528 405 451T277 311V213H129V342ZM124
155H283V0H124V155Z" />
<glyph unicode="@" glyph-name="at" horiz-adv-x="950" d="M269 -126T161 -22T52 272Q52 306 57 351Q71 489 133 592T299 753T543 810Q668 810 753 764T879 635T921 443Q921 413 918 383Q912 314 883 250T799 143T664 100Q619 100 583 118T534 174Q520 144 491
126T424 107Q351 107 309 162T266 301Q266 366 290 438T365 562T493 613Q525 613 540 593T567 543L577 607H707L664 280Q664 275 662 260T660 232Q660 196 675 191Q679 190 687 190Q713 190 739 215T783 285T806 382Q809 412 809 441Q809 570 742 641T531 713Q368
713 280 613T175 353Q170 306 170 272Q170 -28 488 -28Q526 -28 584 -19T686 5L704 -94Q571 -126 472 -126Q269 -126 161 -22ZM487 218T503 224T526 244L557 480Q556 487 546 490T527 494Q489 494 462 467T421 399T406 313Q406 269 422 242T473 216Q487 218 503
224Z" />
<glyph unicode="A" glyph-name="A" horiz-adv-x="551" d="M174 810H378L529 0H364L337 171H218L190 0H21L174 810ZM320 278L277 594L234 278H320Z" />
<glyph unicode="B" glyph-name="B" horiz-adv-x="588" d="M60 810H271Q350 810 405 794T495 730T529 598Q529 526 498 486T410 435Q480 426 517 376T554 240Q554 0 309 0H60V810ZM274 486Q331 486 351 512T372 593Q372 641 346 665T270 690H239V486H274ZM277 125Q334
125 357 153T381 243Q381 312 358 340T276 368H239V125H277Z" />
<glyph unicode="C" glyph-name="C" horiz-adv-x="563" d="M160 -12T105 57T49 258V550Q49 684 104 752T292 821Q419 821 472 760T525 587V517H350V598Q350 645 340 670T292 695Q254 695 242 669T230 595V214Q230 166 242 141T292 115Q329 115 339 140T350 214V299H525V229Q525
115 472 52T292 -12Q160 -12 105 57Z" />
<glyph unicode="D" glyph-name="D" horiz-adv-x="586" d="M60 810H265Q370 810 429 784T512 703T537 554V260Q537 166 513 110T430 27T267 0H60V810ZM267 124Q306 124 324 135T348 168T353 232V585Q353 624 348 644T324 675T266 685H239V124H267Z" />
<glyph unicode="E" glyph-name="E" horiz-adv-x="447" d="M60 810H424V688H239V487H380V363H239V121H426V0H60V810Z" />
<glyph unicode="F" glyph-name="F" horiz-adv-x="434" d="M60 810H410V689H239V485H388V360H239V0H60V810Z" />
<glyph unicode="G" glyph-name="G" horiz-adv-x="582" d="M151 -12T100 61T49 268V540Q49 677 104 749T292 821Q419 821 474 759T529 584V532H354V598Q354 646 343 670T294 695Q255 695 244 668T232 593V218Q232 170 246 143T299 115Q369 115 369 220V315H296V420H530V0H412L402
67Q364 -12 271 -12Q151 -12 100 61Z" />
<glyph unicode="H" glyph-name="H" horiz-adv-x="610" d="M63 810H242V482H367V810H547V0H367V354H242V0H63V810Z" />
<glyph unicode="I" glyph-name="I" horiz-adv-x="301" d="M61 810H240V0H61V810Z" />
<glyph unicode="J" glyph-name="J" horiz-adv-x="349" d="M13 104Q52 104 72 110T101 133T110 186V810H289V178Q289 109 272 66T214 1T100 -21H13V104Z" />
<glyph unicode="K" glyph-name="K" horiz-adv-x="567" d="M60 810H239V479L375 810H550L400 444L557 0H375L258 358L239 326V0H60V810Z" />
<glyph unicode="L" glyph-name="L" horiz-adv-x="443" d="M60 810H239V121H425V0H60V810Z" />
<glyph unicode="M" glyph-name="M" horiz-adv-x="704" d="M71 810H263L352 339L448 810H633L647 0H520L505 539L411 0H298L198 543L186 0H57L71 810Z" />
<glyph unicode="N" glyph-name="N" horiz-adv-x="561" d="M60 810H186L352 420V810H500V0H379L213 420V0H60V810Z" />
<glyph unicode="O" glyph-name="O" horiz-adv-x="586" d="M161 -12T105 55T49 255V556Q49 688 105 754T292 821Q424 821 480 754T537 556V255Q537 123 481 56T292 -12Q161 -12 105 55ZM330 115T342 140T354 210V600Q354 645 342 670T292 695Q256 695 244 670T232
600V210Q232 166 243 141T292 115Q330 115 342 140Z" />
<glyph unicode="P" glyph-name="P" horiz-adv-x="571" d="M60 810H332Q439 810 492 750T545 575Q545 445 484 395T311 344H239V0H60V810ZM299 469Q346 469 361 494T377 578Q377 632 362 658T298 684H239V469H299Z" />
<glyph unicode="Q" glyph-name="Q" horiz-adv-x="586" d="M439 -144T389 -101T309 -11Q304 -12 292 -12Q161 -12 105 55T49 255V556Q49 688 105 754T292 821Q424 821 480 754T537 556V255Q537 166 512 107T430 18Q481 -37 513 -53L475 -159Q439 -144 389 -101ZM330
115T342 140T354 210V600Q354 645 342 670T292 695Q254 695 243 671T232 600V210Q232 166 243 141T292 115Q330 115 342 140Z" />
<glyph unicode="R" glyph-name="R" horiz-adv-x="600" d="M60 810H283Q416 810 484 763T552 596Q552 515 531 467T453 392L564 0H379L290 363H239V0H60V810ZM289 466Q343 466 364 494T386 580Q386 635 366 662T297 690H239V466H289Z" />
<glyph unicode="S" glyph-name="S" horiz-adv-x="514" d="M159 -12T103 49T42 245L195 268Q196 191 213 158T266 124Q311 124 311 183Q311 230 290 264T222 337L152 398Q100 442 72 491T43 609Q43 711 103 766T270 821Q385 821 426 754T471 591L317 572Q315 635
306 662T264 690Q241 690 229 671T216 627Q216 586 234 558T294 494L361 435Q421 384 454 327T487 192Q487 135 461 89T386 15T275 -12Q159 -12 103 49Z" />
<glyph unicode="T" glyph-name="T" horiz-adv-x="445" d="M133 677H11V810H434V677H313V0H133V677Z" />
<glyph unicode="U" glyph-name="U" horiz-adv-x="588" d="M203 -12T150 17T76 104T54 251V810H231V224Q231 175 243 146T294 117Q332 117 344 146T356 224V810H534V251Q534 162 512 105T438 18T294 -12Q203 -12 150 17Z" />
<glyph unicode="V" glyph-name="V" horiz-adv-x="526" d="M22 810H175L262 260L343 810H505L357 0H168L22 810Z" />
<glyph unicode="W" glyph-name="W" horiz-adv-x="697" d="M27 810H179L227 338L288 809H407L471 341L520 810H670L573 0H417L348 489L283 0H125L27 810Z" />
<glyph unicode="X" glyph-name="X" horiz-adv-x="515" d="M164 436L14 810H183L272 591L344 810H493L351 389L509 0H341L242 242L155 0H7L164 436Z" />
<glyph unicode="Y" glyph-name="Y" horiz-adv-x="493" d="M162 331L8 810H177L254 554L323 810H485L334 331V0H162V331Z" />
<glyph unicode="Z" glyph-name="Z" horiz-adv-x="433" d="M29 108L227 689H38V810H403V709L202 121H405V0H29V108Z" />
<glyph unicode="[" glyph-name="bracketleft" horiz-adv-x="332" d="M52 810H303V747H179V-122H302V-185H51L52 810Z" />
<glyph unicode="\" glyph-name="backslash" horiz-adv-x="422" d="M43 810H131L379 0H292L43 810Z" />
<glyph unicode="]" glyph-name="bracketright" horiz-adv-x="324" d="M22 -122H145L144 747H21V810H272L273 -185H22V-122Z" />
<glyph unicode="^" glyph-name="asciicircum" horiz-adv-x="476" d="M173 810H302L446 475H308L238 670L167 475H30L173 810Z" />
<glyph unicode="_" glyph-name="underscore" horiz-adv-x="368" d="M0 -58H368V-167H0V-58Z" />
<glyph unicode="`" glyph-name="grave" horiz-adv-x="307" d="M41 810H207L268 608H166L41 810Z" />
<glyph unicode="a" glyph-name="a" horiz-adv-x="476" d="M128 -10T98 10T52 63T36 131Q36 198 70 241T151 308T274 358V416Q274 441 267 454T240 467Q221 467 213 455T204 421L200 379L48 385Q52 489 103 538T255 588Q340 588 385 541T430 414V144Q430 56 440
0H294Q285 67 281 82Q269 42 241 16T170 -10Q128 -10 98 10ZM253 100T274 129V287Q229 261 206 233T183 163Q183 134 195 117T228 100Q253 100 274 129Z" />
<glyph unicode="b" glyph-name="b" horiz-adv-x="506" d="M276 -10T214 44V0H51V810H214V536Q243 562 276 575T340 588Q403 588 433 541T464 418V169Q464 86 431 38T338 -10Q276 -10 214 44ZM281 95T291 113T301 160V430Q301 457 292 473T261 490Q238 490 214
471V111Q236 95 259 95Q281 95 291 113Z" />
<glyph unicode="c" glyph-name="c" horiz-adv-x="468" d="M145 -10T92 41T39 183V395Q39 487 91 537T239 588Q333 588 383 544T434 414V353H277V419Q277 452 268 464T239 477Q220 477 212 462T203 409V169Q203 132 212 117T240 102Q259 102 268 115T277 159V236H434V166Q434
80 383 35T239 -10Q145 -10 92 41Z" />
<glyph unicode="d" glyph-name="d" horiz-adv-x="503" d="M111 -10T77 35T42 168V407Q42 490 76 539T176 588Q237 588 290 542V810H453V0H290V45Q233 -10 176 -10Q111 -10 77 35ZM266 94T290 109V474Q266 487 248 487Q227 487 217 470T206 424V158Q206 129 216
112T247 94Q266 94 290 109Z" />
<glyph unicode="e" glyph-name="e" horiz-adv-x="470" d="M145 -10T92 40T39 183V395Q39 487 92 537T240 588Q336 588 384 539T432 395V279H200V168Q200 106 240 106Q282 106 282 162V223H432V167Q432 80 382 35T240 -10Q145 -10 92 40ZM282 355V413Q282 445 271
458T239 472Q220 472 210 457T200 404V355H282Z" />
<glyph unicode="f" glyph-name="f" horiz-adv-x="320" d="M72 468H17V578H72V621Q72 679 83 714T128 770T230 790Q272 790 308 785V664Q286 669 273 669Q235 669 235 624V578H308V468H235V0H72V468Z" />
<glyph unicode="g" glyph-name="g" horiz-adv-x="501" d="M139 -200T82 -171T25 -82Q25 -8 115 33Q35 55 35 125Q35 158 50 183T99 237Q42 288 42 387Q42 484 95 536T249 588Q338 588 386 543Q409 580 456 603L477 613L515 535Q501 530 473 518T425 494Q448 446
448 386Q448 291 398 239T249 187Q195 187 150 203Q135 182 135 168Q135 156 147 149T190 138L342 121Q415 113 450 74T486 -30Q486 -115 428 -157T239 -200Q139 -200 82 -171ZM276 284T285 306T294 387Q294 446 285 468T249 491Q222 491 213 469T204 387Q204 329
213 307T249 284Q276 284 285 306ZM319 -82T346 -72T374 -36Q374 -15 356 -6T287 9L180 20Q146 -6 146 -34Q146 -59 172 -70T260 -82Q319 -82 346 -72Z" />
<glyph unicode="h" glyph-name="h" horiz-adv-x="509" d="M52 810H214V527Q275 588 356 588Q406 588 434 551T462 453V0H300V430Q300 452 293 462T267 473Q246 473 214 452V0H52V810Z" />
<glyph unicode="i" glyph-name="i" horiz-adv-x="265" d="M51 789H215V676H51V789ZM52 578H215V0H52V578Z" />
<glyph unicode="j" glyph-name="j" horiz-adv-x="277" d="M64 789H227V676H64V789ZM33 -180T-9 -167V-50Q9 -54 20 -54Q64 -54 64 -5V578H227V-25Q227 -95 189 -137T78 -180Q33 -180 -9 -167Z" />
<glyph unicode="k" glyph-name="k" horiz-adv-x="541" d="M51 810H213V361L355 578H538L384 341L536 0H358L256 275L213 220V0H51V810Z" />
<glyph unicode="l" glyph-name="l" horiz-adv-x="274" d="M58 810H220V0H58V810Z" />
<glyph unicode="m" glyph-name="m" horiz-adv-x="753" d="M51 578H211V532Q269 589 348 589Q383 589 408 572T447 520Q508 589 594 589Q645 589 675 552T706 449V0H546V432Q546 456 538 466T512 477Q501 477 486 472T458 456V449V0H300V432Q300 477 265 477Q242
477 211 456V0H51V578Z" />
<glyph unicode="n" glyph-name="n" horiz-adv-x="507" d="M51 578H214V520Q282 588 353 588Q405 588 432 551T460 453V0H298V430Q298 452 291 462T265 473Q245 473 214 452V0H51V578Z" />
<glyph unicode="o" glyph-name="o" horiz-adv-x="483" d="M146 -10T93 38T39 179V399Q39 492 92 540T241 588Q336 588 390 540T444 399V179Q444 87 390 39T241 -10Q146 -10 93 38ZM265 98T274 115T283 168V410Q283 445 274 462T242 480Q219 480 210 462T200 410V168Q200
133 209 116T242 98Q265 98 274 115Z" />
<glyph unicode="p" glyph-name="p" horiz-adv-x="505" d="M51 578H214V536Q242 562 275 575T339 588Q402 588 432 541T463 418V169Q463 86 430 38T337 -10Q276 -10 214 44V-190H51V578ZM279 95T289 113T300 160V430Q300 456 290 473T260 490Q236 490 214 470V110Q237
95 257 95Q279 95 289 113Z" />
<glyph unicode="q" glyph-name="q" horiz-adv-x="504" d="M292 48Q232 -10 176 -10Q110 -10 76 35T42 168V407Q42 490 76 539T176 588Q238 588 292 539V578H455V-190H292V48ZM266 94T292 110V472Q269 487 249 487Q227 487 216 470T205 424V158Q205 129 216 112T248
94Q266 94 292 110Z" />
<glyph unicode="r" glyph-name="r" horiz-adv-x="383" d="M53 578H216V482Q246 535 274 560T340 585Q354 585 365 582V420Q335 432 312 432Q259 432 216 376V0H53V578Z" />
<glyph unicode="s" glyph-name="s" horiz-adv-x="424" d="M152 -10T102 24T20 135L131 184Q147 144 168 122T216 100Q254 100 254 130Q254 152 239 169T174 228L132 263Q80 307 57 343T33 429Q33 475 57 511T123 567T211 588Q282 588 329 550T397 439L292 391Q282
423 261 448T215 474Q199 474 190 465T180 441Q180 423 199 402T261 347L302 311Q352 269 379 233T406 147Q406 98 382 63T317 9T229 -10Q152 -10 102 24Z" />
<glyph unicode="t" glyph-name="t" horiz-adv-x="354" d="M166 -6T131 12T82 66T68 157V471H12V578H68V754H233V578H315V471H233V173Q233 149 246 138T284 126Q304 126 328 130V2Q280 -6 230 -6Q166 -6 131 12Z" />
<glyph unicode="u" glyph-name="u" horiz-adv-x="504" d="M101 -10T73 27T45 125V578H208V144Q208 122 216 111T242 100Q258 100 290 118V578H452V0H290V53Q222 -10 153 -10Q101 -10 73 27Z" />
<glyph unicode="v" glyph-name="v" horiz-adv-x="421" d="M10 578H166L214 209L258 578H414L295 0H126L10 578Z" />
<glyph unicode="w" glyph-name="w" horiz-adv-x="597" d="M21 578H157L199 250L244 578H362L401 242L450 578H576L490 0H350L300 325L244 0H106L21 578Z" />
<glyph unicode="x" glyph-name="x" horiz-adv-x="442" d="M134 317L17 578H181L243 439L298 578H423L309 293L440 0H274L204 159L146 0H11L134 317Z" />
<glyph unicode="y" glyph-name="y" horiz-adv-x="448" d="M67 -55Q115 -55 137 -45T160 -6Q160 19 139 91L3 578H156L229 244L284 578H438L305 -14Q286 -99 236 -133T104 -168H67V-55Z" />
<glyph unicode="z" glyph-name="z" horiz-adv-x="392" d="M35 105L194 459H47V578H364V479L203 119H366V0H35V105Z" />
<glyph unicode="{" glyph-name="braceleft" horiz-adv-x="374" d="M239 -193T191 -173T128 -110T113 21V101Q113 179 110 209T94 248T48 258V376Q81 376 93 386T109 425T113 533V613Q113 701 127 744T190 808T343 828V719Q306 719 290 711T269 680T263 604V514Q263
423 245 376T177 317Q226 306 244 259T263 121V30Q263 -23 268 -46T290 -76T343 -84V-193Q239 -193 191 -173Z" />
<glyph unicode="|" glyph-name="bar" horiz-adv-x="262" d="M65 810H198V-180H64L65 810Z" />
<glyph unicode="}" glyph-name="braceright" horiz-adv-x="379" d="M37 -84Q74 -84 90 -77T111 -46T117 30V121Q117 212 135 259T204 317Q154 328 136 375T117 514V604Q117 657 112 680T90 711T37 719V828Q141 828 189 808T252 745T267 613V533Q267 455 270 426T286
386T332 376V258Q299 258 287 249T271 209T267 101V21Q267 -67 253 -110T190 -173T37 -193V-84Z" />
<glyph unicode="~" glyph-name="asciitilde" horiz-adv-x="481" d="M306 333T283 341T228 366Q200 379 186 385T160 391Q147 391 127 378T92 343L40 411Q61 447 94 475T158 504Q178 504 198 497T258 471Q282 459 297 453T323 447Q336 447 354 460T391 494L448
436Q429 396 395 365T327 333Q306 333 283 341Z" />
<glyph unicode="&#xa0;" glyph-name="uni00A0" horiz-adv-x="256" />
<glyph unicode="&#xa1;" glyph-name="exclamdown" horiz-adv-x="237" d="M48 652H202V500H48V652ZM96 446H152L199 -156H37L96 446Z" />
<glyph unicode="&#xa2;" glyph-name="cent" horiz-adv-x="457" d="M212 -9Q129 -2 84 48T38 183V395Q38 481 83 530T212 587V709H254V588Q340 584 386 540T433 414V353H275V415Q275 448 266 460T238 473Q218 473 209 458T200 405V173Q200 135 209 121T238 106Q257
106 266 119T275 163V236H433V166Q433 84 387 40T254 -10V-132H212V-9Z" />
<glyph unicode="&#xa3;" glyph-name="sterling" horiz-adv-x="490" d="M21 92L81 120V321H21V448H81V539Q81 631 94 690T150 785T277 821Q350 821 390 794T445 719T461 601V577H318Q318 632 311 658T278 684Q251 684 245 655T238 553V447H357V321H238V138H455V0H21V92Z" />
<glyph unicode="&#xa4;" glyph-name="currency" horiz-adv-x="555" d="M40 201L120 280Q94 308 80 345T65 423Q65 463 79 500T120 566L40 645L55 660L134 581Q162 608 199 622T277 637Q318 637 355 623T420 581L499 660L514 645L435 566Q460 537 474 501T488 423Q488
382 474 345T434 280L514 201L499 186L420 265Q391 238 355 223T277 209Q236 208 200 223T134 265L55 186L40 201ZM323 254T360 277T419 338T441 423Q441 469 420 508T361 569T277 592Q232 592 195 570T136 508T114 423Q114 378 135 339T194 277T277 254Q323 254
360 277Z" />
<glyph unicode="&#xa5;" glyph-name="yen" horiz-adv-x="475" d="M155 120H71V200H155V266H71V349H134L1 810H169L247 499L315 810H478L347 349H410V266H326V200H410V120H326V0H155V120Z" />
<glyph unicode="&#xa6;" glyph-name="brokenbar" horiz-adv-x="217" d="M51 810H165V402H51V810ZM51 227H165V-181H51V227Z" />
<glyph unicode="&#xa7;" glyph-name="section" horiz-adv-x="473" d="M158 -6T113 38T48 158L156 186Q166 156 187 132T236 107Q263 107 278 120T293 156Q293 182 276 202T214 249L126 305Q89 327 69 356T48 425Q48 470 73 503T135 547Q98 568 71 605T43 684Q43
731 69 766T138 819T234 838Q310 838 358 793T425 671L319 645Q308 682 291 704T242 726Q216 726 201 715T186 680Q186 657 201 642T232 617T251 604L326 558Q418 500 418 420Q418 381 398 353T339 300Q381 265 401 233T422 158Q422 85 372 40T233 -6Q158 -6 113
38ZM274 371T285 382T296 408Q296 418 289 430T265 453L216 482Q196 477 185 464T173 435Q173 424 178 415T193 399L257 361Q274 371 285 382Z" />
<glyph unicode="&#xa8;" glyph-name="dieresis" horiz-adv-x="425" d="M39 810H169V662H39V810ZM255 810H386V662H255V810Z" />
<glyph unicode="&#xa9;" glyph-name="copyright" horiz-adv-x="884" d="M307 -13T218 47T86 203T43 407Q43 514 85 609T217 765T442 825Q576 825 665 765T797 610T840 407Q840 299 798 203T667 47T442 -13Q307 -13 218 47ZM560 27T639 80T757 219T796 406Q796
506 758 591T640 729T443 782Q326 782 247 730T129 592T90 406Q90 306 128 220T246 80T443 27Q560 27 639 80ZM339 123T282 173T225 312V507Q225 596 282 645T441 694Q543 694 598 652T653 526V469H483V527Q483 559 473 571T442 584Q420 584 410 569T400 516V301Q400
263 410 249T442 235Q463 235 473 248T483 292V357H653V294Q653 210 598 167T441 123Q339 123 282 173Z" />
<glyph unicode="&#xaa;" glyph-name="ordfeminine" horiz-adv-x="483" d="M116 313T86 346T56 433Q56 487 86 521T161 575T278 619V673Q278 716 249 716Q230 716 223 701T212 643L71 647Q72 735 122 778T261 821Q342 821 382 779T423 664V322H295L286 389Q272
355 243 334T171 313Q116 313 86 346ZM247 409T258 416T278 435V563Q241 546 218 516T194 458Q194 436 206 423T235 409Q247 409 258 416Z" />
<glyph unicode="&#xab;" glyph-name="guillemotleft" horiz-adv-x="488" d="M37 271V327L234 561V405L132 299L234 193V37L37 271ZM253 271V327L450 561V405L348 299L450 193V37L253 271Z" />
<glyph unicode="&#xac;" glyph-name="logicalnot" horiz-adv-x="499" d="M371 363H46V472H451V205H371V363Z" />
<glyph unicode="&#xad;" glyph-name="uni00AD" horiz-adv-x="372" d="M65 364H315V259H65V364Z" />
<glyph unicode="&#xae;" glyph-name="registered" horiz-adv-x="890" d="M312 -14T223 46T91 202T48 404Q48 511 90 606T222 762T446 822Q580 822 669 762T800 607T843 404Q843 297 801 202T670 46T446 -14Q312 -14 223 46ZM556 39T632 90T745 225T782 404Q782
500 745 583T633 717T445 768Q332 768 256 717T144 584T107 404Q107 308 143 225T256 91T445 39Q556 39 632 90ZM277 660H443Q534 660 580 629T626 522Q626 473 611 444T554 396L642 153H504L436 371H408V153H277V660ZM430 436Q470 436 486 456T503 513Q503 583
441 583H408V436H430Z" />
<glyph unicode="&#xaf;" glyph-name="overscore" horiz-adv-x="368" d="M57 810H311V733H57V810Z" />
<glyph unicode="&#xb0;" glyph-name="degree" horiz-adv-x="540" d="M210 424T165 449T94 519T69 623Q69 713 124 767T269 821Q360 821 416 767T472 623Q472 533 417 479T269 424Q210 424 165 449ZM316 513T342 543T368 623Q368 672 342 702T269 732Q223 732 197
702T171 623Q171 574 197 544T269 513Q316 513 342 543Z" />
<glyph unicode="&#xb1;" glyph-name="plusminus" horiz-adv-x="483" d="M191 315H65V411H191V540H293V411H418V315H293V185H191V315ZM65 99H418V0H65V99Z" />
<glyph unicode="&#xb2;" glyph-name="uni00B2" horiz-adv-x="474" d="M81 513L196 629Q242 674 259 701T277 755Q277 800 240 800Q217 800 207 780T197 718H79V734Q79 808 119 853T243 898Q314 898 355 860T396 754Q396 706 375 669T308 587L250 530H400V433H81V513Z" />
<glyph unicode="&#xb3;" glyph-name="uni00B3" horiz-adv-x="474" d="M151 423T116 458T80 559V575H197V571Q197 521 239 521Q279 521 279 568Q279 597 266 611T219 626H193V698H216Q248 698 261 711T275 752Q275 800 238 800Q197 800 197 750V746H80V762Q80 828
121 863T238 898Q311 898 352 867T394 774Q394 734 375 707T328 669Q360 659 378 634T397 559Q397 495 355 459T238 423Q151 423 116 458Z" />
<glyph unicode="&#xb4;" glyph-name="acute" horiz-adv-x="307" d="M115 810H282L156 608H54L115 810Z" />
<glyph unicode="&#xb5;" glyph-name="uni00B5" horiz-adv-x="491" d="M41 578H204V148Q204 126 211 116T236 105Q256 105 283 124V578H446V0H283V46Q255 14 225 4Q212 -1 205 -1V-187H42L41 578Z" />
<glyph unicode="&#xb6;" glyph-name="paragraph" horiz-adv-x="521" d="M188 490Q118 492 77 534T35 650Q35 735 89 772T230 810H453V-96H364V717H283V-96H188V490Z" />
<glyph unicode="&#xb7;" glyph-name="middot" horiz-adv-x="226" d="M37 452H191V300H37V452Z" />
<glyph unicode="&#xb8;" glyph-name="cedilla" horiz-adv-x="353" d="M101 -277T65 -265V-195Q93 -203 122 -203Q184 -203 184 -168Q184 -143 157 -131T92 -116V0H151V-66Q215 -66 251 -92T288 -170Q288 -224 246 -250T141 -277Q101 -277 65 -265Z" />
<glyph unicode="&#xb9;" glyph-name="uni00B9" horiz-adv-x="376" d="M157 753L65 717V822L196 888H279V433H157V753Z" />
<glyph unicode="&#xba;" glyph-name="ordmasculine" horiz-adv-x="483" d="M161 313T115 353T69 470V665Q69 741 115 781T241 822Q320 822 367 781T414 665V470Q414 395 367 354T241 313Q161 313 115 353ZM281 411T281 471V664Q281 694 272 709T241 724Q201 724
201 664V471Q201 411 241 411Q281 411 281 471Z" />
<glyph unicode="&#xbb;" glyph-name="guillemotright" horiz-adv-x="494" d="M45 193L149 300L45 405V561L244 327V271L45 37V193ZM261 193L365 300L261 405V561L460 327V271L261 37V193Z" />
<glyph unicode="&#xbc;" glyph-name="onequarter" horiz-adv-x="852" d="M382 931L290 895V1000L421 1066H504V611H382V931ZM558 810H654L268 0H171L558 810ZM628 101H451V175L647 455H750V177H794V101H750V0H628V101ZM628 177L627 310L535 177H628Z" />
<glyph unicode="&#xbd;" glyph-name="onehalf" horiz-adv-x="895" d="M374 931L282 895V1000L413 1066H496V611H374V931ZM550 810H646L260 0H163L550 810ZM527 80L642 196Q688 241 705 268T723 322Q723 367 686 367Q663 367 653 347T643 285H525V301Q525 375 565
420T689 465Q760 465 801 427T842 321Q842 273 821 236T754 154L696 97H846V0H527V80Z" />
<glyph unicode="&#xbe;" glyph-name="threequarters" horiz-adv-x="922" d="M387 602T352 637T316 738V754H433V750Q433 700 475 700Q515 700 515 747Q515 776 502 790T455 805H429V877H452Q484 877 497 890T511 931Q511 979 474 979Q433 979 433 929V925H316V941Q316
1007 357 1042T474 1077Q547 1077 588 1046T630 953Q630 913 611 886T564 848Q596 838 614 813T633 738Q633 674 591 638T474 602Q387 602 352 637ZM639 810H735L349 0H252L639 810ZM710 101H533V175L729 455H832V177H876V101H832V0H710V101ZM710 177L709 310L617
177H710Z" />
<glyph unicode="&#xbf;" glyph-name="questiondown" horiz-adv-x="484" d="M350 300Q278 244 235 174T191 30Q191 -40 244 -40Q268 -40 281 -26T295 13Q295 37 283 68L430 102Q447 53 447 8Q447 -80 393 -129T240 -179Q140 -179 85 -126T30 25Q30 114 74 191T202
331V429H350V300ZM355 487H196V642H355V487Z" />
<glyph unicode="&#xc0;" glyph-name="Agrave" horiz-adv-x="551" d="M174 810H378L529 0H364L337 171H218L190 0H21L174 810ZM320 278L277 594L234 278H320ZM101 1075H269L330 874H228L101 1075Z" />
<glyph unicode="&#xc1;" glyph-name="Aacute" horiz-adv-x="551" d="M174 810H378L529 0H364L337 171H218L190 0H21L174 810ZM320 278L277 594L234 278H320ZM285 1075H451L325 874H222L285 1075Z" />
<glyph unicode="&#xc2;" glyph-name="Acircumflex" horiz-adv-x="551" d="M174 810H378L529 0H364L337 171H218L190 0H21L174 810ZM320 278L277 594L234 278H320ZM208 1073H341L439 881H319L275 1000L232 881H113L208 1073Z" />
<glyph unicode="&#xc3;" glyph-name="Atilde" horiz-adv-x="551" d="M174 810H378L529 0H364L337 171H218L190 0H21L174 810ZM320 278L277 594L234 278H320ZM339 900T323 906T287 926Q269 936 257 941T232 947Q196 947 196 906H118Q116 1048 208 1048Q225 1048
239 1043T274 1025Q291 1015 304 1010T331 1004Q362 1004 362 1042H434Q434 979 419 940T357 900Q339 900 323 906Z" />
<glyph unicode="&#xc4;" glyph-name="Adieresis" horiz-adv-x="551" d="M174 810H378L529 0H364L337 171H218L190 0H21L174 810ZM320 278L277 594L234 278H320ZM102 1042H232V894H102V1042ZM320 1042H450V894H320V1042Z" />
<glyph unicode="&#xc5;" glyph-name="Aring" horiz-adv-x="551" d="M174 810H378L529 0H364L337 171H218L190 0H21L174 810ZM320 278L277 594L234 278H320ZM225 854T192 882T159 963Q159 1015 192 1044T275 1073Q325 1073 359 1044T393 963Q393 911 360 883T275
854Q225 854 192 882ZM299 911T312 926T325 963Q325 986 312 1001T275 1016Q252 1016 239 1001T226 963Q226 941 239 926T275 911Q299 911 312 926Z" />
<glyph unicode="&#xc6;" glyph-name="AE" horiz-adv-x="708" d="M340 798H689V676H519V481H639V356H519V121H689V0H366V169H235L166 0H-13L340 798ZM366 281V534L271 281H366Z" />
<glyph unicode="&#xc7;" glyph-name="Ccedilla" horiz-adv-x="563" d="M160 -12T105 57T49 258V550Q49 684 104 752T292 821Q419 821 472 760T525 587V517H350V598Q350 645 340 670T292 695Q254 695 242 669T230 595V214Q230 166 242 141T292 115Q329 115 339
140T350 214V299H525V229Q525 115 472 52T292 -12Q160 -12 105 57ZM262 -277T226 -265V-195Q254 -203 283 -203Q345 -203 345 -168Q345 -143 318 -131T253 -116V0H312V-66Q376 -66 412 -92T449 -170Q449 -224 407 -250T302 -277Q262 -277 226 -265Z" />
<glyph unicode="&#xc8;" glyph-name="Egrave" horiz-adv-x="447" d="M60 810H424V688H239V487H380V363H239V121H426V0H60V810ZM69 1075H237L298 874H196L69 1075Z" />
<glyph unicode="&#xc9;" glyph-name="Eacute" horiz-adv-x="447" d="M60 810H424V688H239V487H380V363H239V121H426V0H60V810ZM253 1075H419L293 874H190L253 1075Z" />
<glyph unicode="&#xca;" glyph-name="Ecircumflex" horiz-adv-x="447" d="M60 810H424V688H239V487H380V363H239V121H426V0H60V810ZM176 1073H309L407 881H287L243 1000L200 881H81L176 1073Z" />
<glyph unicode="&#xcb;" glyph-name="Edieresis" horiz-adv-x="447" d="M60 810H424V688H239V487H380V363H239V121H426V0H60V810ZM70 1042H200V894H70V1042ZM288 1042H418V894H288V1042Z" />
<glyph unicode="&#xcc;" glyph-name="Igrave" horiz-adv-x="301" d="M61 810H240V0H61V810ZM-25 1075H143L204 874H102L-25 1075Z" />
<glyph unicode="&#xcd;" glyph-name="Iacute" horiz-adv-x="301" d="M61 810H240V0H61V810ZM159 1075H325L199 874H96L159 1075Z" />
<glyph unicode="&#xce;" glyph-name="Icircumflex" horiz-adv-x="301" d="M61 810H240V0H61V810ZM82 1073H215L313 881H193L149 1000L106 881H-13L82 1073Z" />
<glyph unicode="&#xcf;" glyph-name="Idieresis" horiz-adv-x="301" d="M61 810H240V0H61V810ZM-24 1042H106V894H-24V1042ZM194 1042H324V894H194V1042Z" />
<glyph unicode="&#xd0;" glyph-name="Eth" horiz-adv-x="563" d="M51 370H7V459H51V810H257Q362 810 421 784T504 703T529 554V260Q529 166 505 110T422 27T259 0H51V370ZM259 124Q298 124 316 135T340 168T346 232V585Q346 624 341 644T317 675T259 685H231V459H272V370H231V124H259Z"
/>
<glyph unicode="&#xd1;" glyph-name="Ntilde" horiz-adv-x="561" d="M60 810H186L352 420V810H500V0H379L213 420V0H60V810ZM343 900T327 906T291 926Q273 936 261 941T236 947Q200 947 200 906H122Q120 1048 212 1048Q229 1048 243 1043T278 1025Q295 1015 308
1010T335 1004Q366 1004 366 1042H438Q438 979 423 940T361 900Q343 900 327 906Z" />
<glyph unicode="&#xd2;" glyph-name="Ograve" horiz-adv-x="586" d="M161 -12T105 55T49 255V556Q49 688 105 754T292 821Q424 821 480 754T537 556V255Q537 123 481 56T292 -12Q161 -12 105 55ZM330 115T342 140T354 210V600Q354 645 342 670T292 695Q256 695
244 670T232 600V210Q232 166 243 141T292 115Q330 115 342 140ZM118 1075H286L347 874H245L118 1075Z" />
<glyph unicode="&#xd3;" glyph-name="Oacute" horiz-adv-x="586" d="M161 -12T105 55T49 255V556Q49 688 105 754T292 821Q424 821 480 754T537 556V255Q537 123 481 56T292 -12Q161 -12 105 55ZM330 115T342 140T354 210V600Q354 645 342 670T292 695Q256 695
244 670T232 600V210Q232 166 243 141T292 115Q330 115 342 140ZM302 1075H468L342 874H239L302 1075Z" />
<glyph unicode="&#xd4;" glyph-name="Ocircumflex" horiz-adv-x="586" d="M161 -12T105 55T49 255V556Q49 688 105 754T292 821Q424 821 480 754T537 556V255Q537 123 481 56T292 -12Q161 -12 105 55ZM330 115T342 140T354 210V600Q354 645 342 670T292 695Q256
695 244 670T232 600V210Q232 166 243 141T292 115Q330 115 342 140ZM225 1073H358L456 881H336L292 1000L249 881H130L225 1073Z" />
<glyph unicode="&#xd5;" glyph-name="Otilde" horiz-adv-x="586" d="M161 -12T105 55T49 255V556Q49 688 105 754T292 821Q424 821 480 754T537 556V255Q537 123 481 56T292 -12Q161 -12 105 55ZM330 115T342 140T354 210V600Q354 645 342 670T292 695Q256 695
244 670T232 600V210Q232 166 243 141T292 115Q330 115 342 140ZM356 900T340 906T304 926Q286 936 274 941T249 947Q213 947 213 906H135Q133 1048 225 1048Q242 1048 256 1043T291 1025Q308 1015 321 1010T348 1004Q379 1004 379 1042H451Q451 979 436 940T374
900Q356 900 340 906Z" />
<glyph unicode="&#xd6;" glyph-name="Odieresis" horiz-adv-x="586" d="M161 -12T105 55T49 255V556Q49 688 105 754T292 821Q424 821 480 754T537 556V255Q537 123 481 56T292 -12Q161 -12 105 55ZM330 115T342 140T354 210V600Q354 645 342 670T292 695Q256
695 244 670T232 600V210Q232 166 243 141T292 115Q330 115 342 140ZM119 1042H249V894H119V1042ZM337 1042H467V894H337V1042Z" />
<glyph unicode="&#xd7;" glyph-name="multiply" horiz-adv-x="486" d="M54 300L170 416L54 531L128 606L244 490L358 606L432 533L317 416L432 300L359 227L244 342L129 227L54 300Z" />
<glyph unicode="&#xd8;" glyph-name="Oslash" horiz-adv-x="572" d="M495 752T516 695T537 556V255Q537 123 481 56T292 -12Q213 -12 159 14L120 -90L81 -74L123 38Q49 101 49 255V556Q49 688 105 754T292 821Q362 821 409 802L440 884L480 869L448 783Q495 752
516 695ZM232 329L351 645Q346 669 333 682T292 695Q256 695 244 670T232 600V329ZM330 115T342 140T354 210V533L232 208Q232 165 243 140T292 115Q330 115 342 140Z" />
<glyph unicode="&#xd9;" glyph-name="Ugrave" horiz-adv-x="588" d="M203 -12T150 17T76 104T54 251V810H231V224Q231 175 243 146T294 117Q332 117 344 146T356 224V810H534V251Q534 162 512 105T438 18T294 -12Q203 -12 150 17ZM119 1075H287L348 874H246L119 1075Z" />
<glyph unicode="&#xda;" glyph-name="Uacute" horiz-adv-x="588" d="M203 -12T150 17T76 104T54 251V810H231V224Q231 175 243 146T294 117Q332 117 344 146T356 224V810H534V251Q534 162 512 105T438 18T294 -12Q203 -12 150 17ZM303 1075H469L343 874H240L303 1075Z" />
<glyph unicode="&#xdb;" glyph-name="Ucircumflex" horiz-adv-x="588" d="M203 -12T150 17T76 104T54 251V810H231V224Q231 175 243 146T294 117Q332 117 344 146T356 224V810H534V251Q534 162 512 105T438 18T294 -12Q203 -12 150 17ZM226 1073H359L457 881H337L293
1000L250 881H131L226 1073Z" />
<glyph unicode="&#xdc;" glyph-name="Udieresis" horiz-adv-x="588" d="M203 -12T150 17T76 104T54 251V810H231V224Q231 175 243 146T294 117Q332 117 344 146T356 224V810H534V251Q534 162 512 105T438 18T294 -12Q203 -12 150 17ZM120 1042H250V894H120V1042ZM338
1042H468V894H338V1042Z" />
<glyph unicode="&#xdd;" glyph-name="Yacute" horiz-adv-x="493" d="M162 331L8 810H177L254 554L323 810H485L334 331V0H162V331ZM256 1075H422L296 874H193L256 1075Z" />
<glyph unicode="&#xde;" glyph-name="Thorn" horiz-adv-x="562" d="M51 810H231V702H309Q431 702 489 649T547 477Q547 382 521 330T441 256T300 234H231V0H51V810ZM288 361Q340 361 362 385T384 468Q384 523 363 548T292 573H231V361H288Z" />
<glyph unicode="&#xdf;" glyph-name="germandbls" horiz-adv-x="542" d="M254 109Q307 109 331 136T355 230Q355 288 332 320T263 352V476Q298 476 316 508T335 601Q335 654 320 681T270 709Q235 709 222 681T209 598V0H46V598Q46 693 97 757T256 822Q367 822
420 766T473 604Q473 477 355 430Q518 387 518 210Q518 93 451 39T254 -15V109Z" />
<glyph unicode="&#xe0;" glyph-name="agrave" horiz-adv-x="476" d="M128 -10T98 10T52 63T36 131Q36 198 70 241T151 308T274 358V416Q274 441 267 454T240 467Q221 467 213 455T204 421L200 379L48 385Q52 489 103 538T255 588Q340 588 385 541T430 414V144Q430
56 440 0H294Q285 67 281 82Q269 42 241 16T170 -10Q128 -10 98 10ZM253 100T274 129V287Q229 261 206 233T183 163Q183 134 195 117T228 100Q253 100 274 129ZM79 843H247L308 642H206L79 843Z" />
<glyph unicode="&#xe1;" glyph-name="aacute" horiz-adv-x="476" d="M128 -10T98 10T52 63T36 131Q36 198 70 241T151 308T274 358V416Q274 441 267 454T240 467Q221 467 213 455T204 421L200 379L48 385Q52 489 103 538T255 588Q340 588 385 541T430 414V144Q430
56 440 0H294Q285 67 281 82Q269 42 241 16T170 -10Q128 -10 98 10ZM253 100T274 129V287Q229 261 206 233T183 163Q183 134 195 117T228 100Q253 100 274 129ZM263 843H429L303 642H200L263 843Z" />
<glyph unicode="&#xe2;" glyph-name="acircumflex" horiz-adv-x="476" d="M128 -10T98 10T52 63T36 131Q36 198 70 241T151 308T274 358V416Q274 441 267 454T240 467Q221 467 213 455T204 421L200 379L48 385Q52 489 103 538T255 588Q340 588 385 541T430 414V144Q430
56 440 0H294Q285 67 281 82Q269 42 241 16T170 -10Q128 -10 98 10ZM253 100T274 129V287Q229 261 206 233T183 163Q183 134 195 117T228 100Q253 100 274 129ZM186 841H319L417 649H297L253 768L210 649H91L186 841Z" />
<glyph unicode="&#xe3;" glyph-name="atilde" horiz-adv-x="476" d="M128 -10T98 10T52 63T36 131Q36 198 70 241T151 308T274 358V416Q274 441 267 454T240 467Q221 467 213 455T204 421L200 379L48 385Q52 489 103 538T255 588Q340 588 385 541T430 414V144Q430
56 440 0H294Q285 67 281 82Q269 42 241 16T170 -10Q128 -10 98 10ZM253 100T274 129V287Q229 261 206 233T183 163Q183 134 195 117T228 100Q253 100 274 129ZM317 668T301 674T265 694Q247 704 235 709T210 715Q174 715 174 674H96Q94 816 186 816Q203 816 217
811T252 793Q269 783 282 778T309 772Q340 772 340 810H412Q412 747 397 708T335 668Q317 668 301 674Z" />
<glyph unicode="&#xe4;" glyph-name="adieresis" horiz-adv-x="476" d="M128 -10T98 10T52 63T36 131Q36 198 70 241T151 308T274 358V416Q274 441 267 454T240 467Q221 467 213 455T204 421L200 379L48 385Q52 489 103 538T255 588Q340 588 385 541T430 414V144Q430
56 440 0H294Q285 67 281 82Q269 42 241 16T170 -10Q128 -10 98 10ZM253 100T274 129V287Q229 261 206 233T183 163Q183 134 195 117T228 100Q253 100 274 129ZM80 810H210V662H80V810ZM298 810H428V662H298V810Z" />
<glyph unicode="&#xe5;" glyph-name="aring" horiz-adv-x="476" d="M128 -10T98 10T52 63T36 131Q36 198 70 241T151 308T274 358V416Q274 441 267 454T240 467Q221 467 213 455T204 421L200 379L48 385Q52 489 103 538T255 588Q340 588 385 541T430 414V144Q430
56 440 0H294Q285 67 281 82Q269 42 241 16T170 -10Q128 -10 98 10ZM253 100T274 129V287Q229 261 206 233T183 163Q183 134 195 117T228 100Q253 100 274 129ZM203 622T170 650T137 731Q137 783 170 812T253 841Q303 841 337 812T371 731Q371 679 338 651T253
622Q203 622 170 650ZM277 679T290 694T303 731Q303 754 290 769T253 784Q230 784 217 769T204 731Q204 709 217 694T253 679Q277 679 290 694Z" />
<glyph unicode="&#xe6;" glyph-name="ae" horiz-adv-x="679" d="M485 202H635V155Q635 75 593 32T471 -12Q424 -12 384 13T335 83Q318 38 278 13T189 -12Q119 -12 78 27T36 133Q36 212 83 254T209 315L269 329V410Q269 441 261 454T235 467Q215 467 206 449T196
382L38 387Q38 588 219 588Q267 588 299 572T344 528Q360 555 397 571T482 588Q560 588 600 550T640 449Q640 381 602 348T490 297L424 282V168Q424 135 430 120T455 104Q474 104 479 118T485 164V202ZM423 356L439 359Q473 366 489 381T505 424Q505 444 495 457T466
470Q423 470 423 414V356ZM269 257L238 244Q207 230 193 210T179 158Q179 131 190 115T225 98Q269 98 269 160V257Z" />
<glyph unicode="&#xe7;" glyph-name="ccedilla" horiz-adv-x="468" d="M145 -10T92 41T39 183V395Q39 487 91 537T239 588Q333 588 383 544T434 414V353H277V419Q277 452 268 464T239 477Q220 477 212 462T203 409V169Q203 132 212 117T240 102Q259 102 268 115T277
159V236H434V166Q434 80 383 35T239 -10Q145 -10 92 41ZM215 -277T179 -265V-195Q207 -203 236 -203Q298 -203 298 -168Q298 -143 271 -131T206 -116V0H265V-66Q329 -66 365 -92T402 -170Q402 -224 360 -250T255 -277Q215 -277 179 -265Z" />
<glyph unicode="&#xe8;" glyph-name="egrave" horiz-adv-x="470" d="M145 -10T92 40T39 183V395Q39 487 92 537T240 588Q336 588 384 539T432 395V279H200V168Q200 106 240 106Q282 106 282 162V223H432V167Q432 80 382 35T240 -10Q145 -10 92 40ZM282 355V413Q282
445 271 458T239 472Q220 472 210 457T200 404V355H282ZM63 843H231L292 642H190L63 843Z" />
<glyph unicode="&#xe9;" glyph-name="eacute" horiz-adv-x="470" d="M145 -10T92 40T39 183V395Q39 487 92 537T240 588Q336 588 384 539T432 395V279H200V168Q200 106 240 106Q282 106 282 162V223H432V167Q432 80 382 35T240 -10Q145 -10 92 40ZM282 355V413Q282
445 271 458T239 472Q220 472 210 457T200 404V355H282ZM247 843H413L287 642H184L247 843Z" />
<glyph unicode="&#xea;" glyph-name="ecircumflex" horiz-adv-x="470" d="M145 -10T92 40T39 183V395Q39 487 92 537T240 588Q336 588 384 539T432 395V279H200V168Q200 106 240 106Q282 106 282 162V223H432V167Q432 80 382 35T240 -10Q145 -10 92 40ZM282 355V413Q282
445 271 458T239 472Q220 472 210 457T200 404V355H282ZM170 841H303L401 649H281L237 768L194 649H75L170 841Z" />
<glyph unicode="&#xeb;" glyph-name="edieresis" horiz-adv-x="470" d="M145 -10T92 40T39 183V395Q39 487 92 537T240 588Q336 588 384 539T432 395V279H200V168Q200 106 240 106Q282 106 282 162V223H432V167Q432 80 382 35T240 -10Q145 -10 92 40ZM282 355V413Q282
445 271 458T239 472Q220 472 210 457T200 404V355H282ZM64 810H194V662H64V810ZM282 810H412V662H282V810Z" />
<glyph unicode="&#xec;" glyph-name="igrave" horiz-adv-x="280" d="M59 578H222V0H59V578ZM-34 843H134L195 642H93L-34 843Z" />
<glyph unicode="&#xed;" glyph-name="iacute" horiz-adv-x="280" d="M59 578H222V0H59V578ZM150 843H316L190 642H87L150 843Z" />
<glyph unicode="&#xee;" glyph-name="icircumflex" horiz-adv-x="280" d="M59 578H222V0H59V578ZM73 841H206L304 649H184L140 768L97 649H-22L73 841Z" />
<glyph unicode="&#xef;" glyph-name="idieresis" horiz-adv-x="280" d="M59 578H222V0H59V578ZM-33 810H97V662H-33V810ZM185 810H315V662H185V810Z" />
<glyph unicode="&#xf0;" glyph-name="eth" horiz-adv-x="520" d="M170 -14T112 41T54 211V380Q54 441 77 487T141 557T230 582Q272 582 306 564Q305 601 299 630T282 673L195 627L177 668L256 710Q245 725 214 733T136 742L143 844Q310 844 373 776L459 823L477
782L402 741Q430 692 449 623T469 443V215Q469 89 414 38T262 -14Q170 -14 112 41ZM288 94T297 114T306 173V465Q284 477 269 477Q246 477 234 460T218 404T213 289Q213 208 216 169T231 112T266 94Q288 94 297 114Z" />
<glyph unicode="&#xf1;" glyph-name="ntilde" horiz-adv-x="507" d="M51 578H214V520Q282 588 353 588Q405 588 432 551T460 453V0H298V430Q298 452 291 462T265 473Q245 473 214 452V0H51V578ZM317 668T301 674T265 694Q247 704 235 709T210 715Q174 715 174
674H96Q94 816 186 816Q203 816 217 811T252 793Q269 783 282 778T309 772Q340 772 340 810H412Q412 747 397 708T335 668Q317 668 301 674Z" />
<glyph unicode="&#xf2;" glyph-name="ograve" horiz-adv-x="483" d="M146 -10T93 38T39 179V399Q39 492 92 540T241 588Q336 588 390 540T444 399V179Q444 87 390 39T241 -10Q146 -10 93 38ZM265 98T274 115T283 168V410Q283 445 274 462T242 480Q219 480 210
462T200 410V168Q200 133 209 116T242 98Q265 98 274 115ZM66 843H234L295 642H193L66 843Z" />
<glyph unicode="&#xf3;" glyph-name="oacute" horiz-adv-x="483" d="M146 -10T93 38T39 179V399Q39 492 92 540T241 588Q336 588 390 540T444 399V179Q444 87 390 39T241 -10Q146 -10 93 38ZM265 98T274 115T283 168V410Q283 445 274 462T242 480Q219 480 210
462T200 410V168Q200 133 209 116T242 98Q265 98 274 115ZM250 843H416L290 642H187L250 843Z" />
<glyph unicode="&#xf4;" glyph-name="ocircumflex" horiz-adv-x="483" d="M146 -10T93 38T39 179V399Q39 492 92 540T241 588Q336 588 390 540T444 399V179Q444 87 390 39T241 -10Q146 -10 93 38ZM265 98T274 115T283 168V410Q283 445 274 462T242 480Q219 480
210 462T200 410V168Q200 133 209 116T242 98Q265 98 274 115ZM173 841H306L404 649H284L240 768L197 649H78L173 841Z" />
<glyph unicode="&#xf5;" glyph-name="otilde" horiz-adv-x="483" d="M146 -10T93 38T39 179V399Q39 492 92 540T241 588Q336 588 390 540T444 399V179Q444 87 390 39T241 -10Q146 -10 93 38ZM265 98T274 115T283 168V410Q283 445 274 462T242 480Q219 480 210
462T200 410V168Q200 133 209 116T242 98Q265 98 274 115ZM304 668T288 674T252 694Q234 704 222 709T197 715Q161 715 161 674H83Q81 816 173 816Q190 816 204 811T239 793Q256 783 269 778T296 772Q327 772 327 810H399Q399 747 384 708T322 668Q304 668 288
674Z" />
<glyph unicode="&#xf6;" glyph-name="odieresis" horiz-adv-x="483" d="M146 -10T93 38T39 179V399Q39 492 92 540T241 588Q336 588 390 540T444 399V179Q444 87 390 39T241 -10Q146 -10 93 38ZM265 98T274 115T283 168V410Q283 445 274 462T242 480Q219 480 210
462T200 410V168Q200 133 209 116T242 98Q265 98 274 115ZM67 810H197V662H67V810ZM285 810H415V662H285V810Z" />
<glyph unicode="&#xf7;" glyph-name="divide" horiz-adv-x="456" d="M183 654H283V531H183V654ZM35 462H421V375H35V462ZM183 300H283V177H183V300Z" />
<glyph unicode="&#xf8;" glyph-name="oslash" horiz-adv-x="477" d="M444 509T444 399V179Q444 87 390 39T241 -10Q186 -10 143 7L104 -89L67 -73L107 26Q39 75 39 179V399Q39 492 92 540T241 588Q290 588 328 575L367 673L406 657L366 558Q444 509 444 399ZM200
258L278 452Q270 480 242 480Q219 480 210 462T200 410V258ZM265 98T274 115T283 168V353L201 150Q204 98 242 98Q265 98 274 115Z" />
<glyph unicode="&#xf9;" glyph-name="ugrave" horiz-adv-x="504" d="M101 -10T73 27T45 125V578H208V144Q208 122 216 111T242 100Q258 100 290 118V578H452V0H290V53Q222 -10 153 -10Q101 -10 73 27ZM77 843H245L306 642H204L77 843Z" />
<glyph unicode="&#xfa;" glyph-name="uacute" horiz-adv-x="504" d="M101 -10T73 27T45 125V578H208V144Q208 122 216 111T242 100Q258 100 290 118V578H452V0H290V53Q222 -10 153 -10Q101 -10 73 27ZM261 843H427L301 642H198L261 843Z" />
<glyph unicode="&#xfb;" glyph-name="ucircumflex" horiz-adv-x="504" d="M101 -10T73 27T45 125V578H208V144Q208 122 216 111T242 100Q258 100 290 118V578H452V0H290V53Q222 -10 153 -10Q101 -10 73 27ZM184 841H317L415 649H295L251 768L208 649H89L184 841Z" />
<glyph unicode="&#xfc;" glyph-name="udieresis" horiz-adv-x="504" d="M101 -10T73 27T45 125V578H208V144Q208 122 216 111T242 100Q258 100 290 118V578H452V0H290V53Q222 -10 153 -10Q101 -10 73 27ZM78 810H208V662H78V810ZM296 810H426V662H296V810Z" />
<glyph unicode="&#xfd;" glyph-name="yacute" horiz-adv-x="448" d="M67 -55Q115 -55 137 -45T160 -6Q160 19 139 91L3 578H156L229 244L284 578H438L305 -14Q286 -99 236 -133T104 -168H67V-55ZM233 843H399L273 642H170L233 843Z" />
<glyph unicode="&#xfe;" glyph-name="thorn" horiz-adv-x="494" d="M46 810H209V536Q268 588 334 588Q396 588 426 541T457 418V169Q457 87 424 39T331 -10Q272 -10 209 43V-190H46V810ZM273 95T283 113T293 160V430Q293 457 284 473T253 490Q231 490 209 470V110Q231
95 252 95Q273 95 283 113Z" />
<glyph unicode="&#xff;" glyph-name="ydieresis" horiz-adv-x="448" d="M67 -55Q115 -55 137 -45T160 -6Q160 19 139 91L3 578H156L229 244L284 578H438L305 -14Q286 -99 236 -133T104 -168H67V-55ZM50 810H180V662H50V810ZM268 810H398V662H268V810Z" />
<glyph unicode="&#x2013;" glyph-name="endash" horiz-adv-x="499" d="M3 422H496V311H3V422Z" />
<glyph unicode="&#x2014;" glyph-name="emdash" horiz-adv-x="992" d="M3 438H990V328H3V438Z" />
<glyph unicode="&#x2018;" glyph-name="quoteleft" horiz-adv-x="228" d="M23 581T25 645Q28 736 54 777T146 818L158 767Q122 766 110 744T97 677H167V534H23Q23 581 25 645Z" />
<glyph unicode="&#x2019;" glyph-name="quoteright" horiz-adv-x="228" d="M70 577Q106 578 118 600T131 667H62V810H205Q205 765 203 699Q200 608 174 568T82 526L70 577Z" />
<glyph unicode="&#x201a;" glyph-name="quotesinglbase" horiz-adv-x="244" d="M70 -58Q106 -57 118 -35T131 32H62V175H205Q205 130 203 64Q200 -27 174 -67T82 -109L70 -58Z" />
<glyph unicode="&#x201c;" glyph-name="quotedblleft" horiz-adv-x="433" d="M23 581T25 645Q28 736 54 777T146 818L158 767Q122 766 110 744T97 677H167V534H23Q23 581 25 645ZM228 581T230 645Q233 736 259 777T351 818L363 767Q327 766 315 744T302 677H372V534H228Q228
581 230 645Z" />
<glyph unicode="&#x201d;" glyph-name="quotedblright" horiz-adv-x="433" d="M70 577Q106 578 118 600T131 667H62V810H205Q205 765 203 699Q200 608 174 568T82 526L70 577ZM275 577Q311 578 323 600T336 667H267V810H410Q410 765 408 699Q405 608 379 568T287
526L275 577Z" />
<glyph unicode="&#x201e;" glyph-name="quotedblbase" horiz-adv-x="433" d="M258 -58Q294 -57 306 -35T319 32H250V175H393Q393 130 391 64Q388 -27 362 -67T270 -109L258 -58ZM70 -58Q106 -57 118 -35T131 32H62V175H205Q205 130 203 64Q200 -27 174 -67T82
-109L70 -58Z" />
<glyph unicode="&#x2022;" glyph-name="bullet" horiz-adv-x="478" d="M191 188T150 209T84 271T59 371Q59 431 84 473T150 536T238 558Q285 558 326 537T392 473T417 371Q417 313 392 272T326 209T238 188Q191 188 150 209Z" />
<glyph unicode="&#x2039;" glyph-name="guilsinglleft" horiz-adv-x="288" d="M38 242V327L244 547V390L137 286L244 179V22L38 242Z" />
<glyph unicode="&#x203a;" glyph-name="guilsinglright" horiz-adv-x="276" d="M41 192L152 298L41 404V560L247 326V270L41 36V192Z" />
</font>
</defs>
</svg>
