<?xml version="1.0" standalone="no"?>
<!DOCTYPE svg PUBLIC "-//W3C//DTD SVG 1.1//EN" "http://www.w3.org/Graphics/SVG/1.1/DTD/svg11.dtd">
<svg xmlns="http://www.w3.org/2000/svg">
<defs >
<font id="PassionOne" horiz-adv-x="369" ><font-face
    font-family="Passion One"
    units-per-em="1000"
    panose-1="2 0 5 6 8 0 0 2 0 4"
    ascent="835"
    descent="-266"
    alphabetic="0" />
<glyph unicode=" " glyph-name="space" horiz-adv-x="210" />
<glyph unicode="!" glyph-name="exclam" horiz-adv-x="298" d="M91 190L80 621H250L236 190H91ZM78 68Q78 108 99 127T166 147T233 128T254 66Q254 -11 166 -11T78 68Z" />
<glyph unicode="&quot;" glyph-name="quotedbl" horiz-adv-x="437" d="M45 641T134 641T223 551T97 381L38 403L100 484L98 489Q45 500 45 562Q45 641 134 641ZM245 641T334 641T423 551T297 381L238 403L300 484L298 489Q245 500 245 562Q245 641 334 641Z" />
<glyph unicode="#" glyph-name="numbersign" horiz-adv-x="496" d="M472 322H394L386 279H451V154H370L350 0H224L242 154H213L190 0H58L81 154H24V279H98L106 322H46V445H121L143 596H273L253 445H280L300 596H430L410 445H472V322ZM271 328H232L223 273H262L271 328Z" />
<glyph unicode="$" glyph-name="dollar" horiz-adv-x="459" d="M77 299T55 339T32 443T67 557T168 624V718H300V628Q350 624 412 613L392 453Q293 476 256 476Q209 476 209 438Q209 423 231 409T286 380T350 343T404 281T427 178T395 65T300 -1V-79H168V-7Q104
0 49 19L60 168Q167 137 209 137T251 174Q251 193 229 209T174 241T110 278Z" />
<glyph unicode="%" glyph-name="percent" horiz-adv-x="811" d="M554 631L374 -10H257L436 631H554ZM222 403V414Q222 473 218 493T206 521T183 528T161 521T150 496Q145 473 145 414V403Q145 336 149 314T162 286T184 279T206 285T218 312Q222 337 222 403ZM334
525T334 407T303 236T184 182T64 236T32 407T63 577T183 631T303 578ZM667 211V222Q667 281 663 301T651 329T628 336T606 329T594 304Q590 281 590 222V211Q590 144 594 122T607 94T629 87T651 93T662 120Q667 145 667 211ZM779 333T779 215T748 44T629 -10T509
44T477 215T508 385T628 439T748 386Z" />
<glyph unicode="&amp;" glyph-name="ampersand" horiz-adv-x="609" d="M389 25Q324 -10 231 -10T85 39T32 182Q32 249 59 286T138 351Q89 412 89 488Q89 644 273 644T458 488Q458 422 433 384T345 310L421 215H425Q437 240 437 284V327H569V293Q569 182 510 122V115H592L582
-10H531Q477 -10 449 -3T389 25ZM249 123H310V127L216 241Q191 220 191 188Q191 123 249 123ZM313 459Q313 496 279 496T244 461Q244 435 277 402Q293 416 298 422Q313 436 313 459Z" />
<glyph unicode="&apos;" glyph-name="quotesingle" horiz-adv-x="237" d="M45 641T134 641T223 551T97 381L38 403L100 484L98 489Q45 500 45 562Q45 641 134 641Z" />
<glyph unicode="(" glyph-name="parenleft" horiz-adv-x="330" d="M190 649L314 596Q211 440 211 260T314 -92L186 -135Q106 -47 65 41T24 255Q24 491 190 649Z" />
<glyph unicode=")" glyph-name="parenright" horiz-adv-x="330" d="M16 596L140 649Q306 491 306 255Q306 129 265 41T144 -135L16 -92Q119 80 119 260T16 596Z" />
<glyph unicode="*" glyph-name="asterisk" horiz-adv-x="424" d="M404 446L307 410L379 317L289 257L216 341L147 258L56 318L115 411L20 447L47 545L149 523L159 622H269L278 522L375 542L404 446Z" />
<glyph unicode="+" glyph-name="plus" horiz-adv-x="482" d="M430 231H304V96H174V231H52V357H174V493H304V357H430V231Z" />
<glyph unicode="," glyph-name="comma" horiz-adv-x="304" d="M166 148Q259 148 259 56Q259 21 239 -11T197 -63T134 -113L75 -91L138 -8L136 -3Q82 12 82 68Q82 148 166 148Z" />
<glyph unicode="-" glyph-name="hyphen" horiz-adv-x="403" d="M355 193H48V327H355V193Z" />
<glyph unicode="." glyph-name="period" horiz-adv-x="296" d="M75 68Q75 108 96 127T163 147T230 128T251 66Q251 -11 163 -11T75 68Z" />
<glyph unicode="/" glyph-name="slash" horiz-adv-x="361" d="M371 621L155 -147H-10L205 621H371Z" />
<glyph unicode="0" glyph-name="zero" horiz-adv-x="473" d="M294 306V321Q294 419 289 435T277 464Q266 484 238 484Q210 484 200 464Q188 438 187 411Q185 361 185 321V306Q185 197 190 180T202 150Q212 128 245 128T286 165T294 306ZM454 394T454 311T446 173T414
74Q369 -10 238 -10Q109 -10 64 74Q41 118 32 173T23 311Q23 479 67 555T238 631Q370 631 414 548Q437 504 445 449Z" />
<glyph unicode="1" glyph-name="one" horiz-adv-x="320" d="M257 0H90V462H18V567L120 621H257V0Z" />
<glyph unicode="2" glyph-name="two" horiz-adv-x="413" d="M8 579Q105 631 201 631T348 582T398 444T367 297T251 143H400V0H33L25 102Q120 203 160 255T214 341T228 404T214 450T176 466T132 460Q103 453 40 424L8 579Z" />
<glyph unicode="3" glyph-name="three" horiz-adv-x="428" d="M217 631Q405 631 405 468Q405 419 387 387T328 329V325Q374 304 394 270T414 180Q414 89 362 40T211 -10Q162 -10 128 -2T39 30L74 170Q157 140 189 140Q236 140 236 192Q236 248 173 248H111V379H174Q202
379 213 391T225 429Q225 477 178 477Q145 477 61 443L22 578Q77 608 120 619T217 631Z" />
<glyph unicode="4" glyph-name="four" horiz-adv-x="492" d="M491 121H421V0H254V121H27L10 240L215 621H421V256H498L491 121ZM259 256V409H253L171 256H259Z" />
<glyph unicode="5" glyph-name="five" horiz-adv-x="413" d="M396 211Q396 -10 200 -10Q109 -10 31 21L43 176Q146 145 182 145Q233 145 233 200T194 256Q175 256 165 236L32 256V621H368V472H187V383Q213 397 253 397Q396 397 396 211Z" />
<glyph unicode="6" glyph-name="six" horiz-adv-x="459" d="M293 232T281 248T242 264T191 257Q189 241 189 231Q189 129 246 129Q271 129 282 145T293 196ZM280 395Q360 395 404 350T448 211Q448 -10 244 -10Q23 -10 23 267Q23 455 113 543T399 631L389 488Q304
488 259 466T196 388L198 383Q234 395 280 395Z" />
<glyph unicode="7" glyph-name="seven" horiz-adv-x="420" d="M404 528L233 0H45L212 462H10V621H404V528Z" />
<glyph unicode="8" glyph-name="eight" horiz-adv-x="464" d="M27 543T80 587T232 631T382 588T435 466Q435 411 419 383T360 321V317Q403 292 422 260T442 176Q442 -10 231 -10Q135 -10 79 35T22 173T102 310V314Q61 350 44 380T27 467Q27 543 80 587ZM235 119Q283
119 283 170Q283 194 270 209T224 248Q198 224 191 209T184 177Q184 119 235 119ZM234 495Q187 495 187 448Q187 416 211 396Q220 389 241 374Q264 393 274 407T285 441Q285 495 234 495Z" />
<glyph unicode="9" glyph-name="nine" horiz-adv-x="459" d="M183 232Q12 232 12 425Q12 631 215 631Q331 631 382 568T434 370Q434 177 349 84T56 -10L66 132Q158 132 201 156T260 237L258 242Q220 232 183 232ZM190 352T218 352T269 361Q270 369 270 403T259
463T212 489Q166 489 166 423Q166 386 178 369Z" />
<glyph unicode=":" glyph-name="colon" horiz-adv-x="296" d="M75 68Q75 108 96 127T163 147T230 128T251 66Q251 -11 163 -11T75 68ZM75 361Q75 401 96 420T163 440T230 421T251 359Q251 282 163 282T75 361Z" />
<glyph unicode=";" glyph-name="semicolon" horiz-adv-x="304" d="M75 147T164 147T253 57T127 -113L68 -91L130 -10L128 -5Q75 6 75 68Q75 147 164 147ZM75 361Q75 401 96 420T163 440T230 421T251 359Q251 282 163 282T75 361Z" />
<glyph unicode="&lt;" glyph-name="less" horiz-adv-x="394" d="M278 3L33 232V301L282 532L364 419L198 267L364 118L278 3Z" />
<glyph unicode="=" glyph-name="equal" horiz-adv-x="454" d="M400 293H54V429H400V293ZM400 91H54V227H400V91Z" />
<glyph unicode="&gt;" glyph-name="greater" horiz-adv-x="394" d="M361 232L116 3L30 118L196 267L30 419L112 532L361 301V232Z" />
<glyph unicode="?" glyph-name="question" horiz-adv-x="387" d="M281 644T320 601T359 473T329 346T241 268L231 262V201H100V296Q100 328 110 346T146 377T182 396T203 415T214 450T203 483T167 495T54 472V623Q138 644 196 644Q281 644 320 601ZM82 64Q82 143
168 143T254 64Q254 26 235 8T171 -11Q82 -11 82 64Z" />
<glyph unicode="@" glyph-name="at" horiz-adv-x="886" d="M627 354L622 151Q622 115 647 115Q680 115 701 160T723 279Q723 397 655 468T463 540Q316 540 240 457T163 229T237 11T442 -63Q513 -63 622 -43V-160Q531 -182 439 -182T275 -158T145 -86T56 44T24
230Q24 416 145 540T460 664T758 559T862 276Q862 152 797 71T614 -10H605Q521 -10 491 41H486Q449 -10 372 -10Q313 -10 282 28T250 132Q250 215 301 247T464 289V313Q464 341 436 341Q392 341 290 312L266 455Q406 491 482 491T593 458T627 354ZM434 107Q471
107 471 146V195Q434 190 419 180T403 144Q403 107 434 107Z" />
<glyph unicode="A" glyph-name="A" horiz-adv-x="498" d="M490 0H323L304 98H186L167 0H8L122 621H376L490 0ZM285 215L250 437H243L208 215H285Z" />
<glyph unicode="B" glyph-name="B" horiz-adv-x="495" d="M481 179Q481 0 289 0H44V621H284Q379 621 425 583T471 460T402 332V326Q481 295 481 179ZM279 111T289 124T300 180T289 240T249 258H217V111H249Q279 111 289 124ZM273 355T282 369T291 418T282 468T249
483H217V355H250Q273 355 282 369Z" />
<glyph unicode="C" glyph-name="C" horiz-adv-x="410" d="M198 216T215 179T273 141T386 160L412 19Q333 -10 253 -10Q133 -10 79 69T24 306T81 547T267 631Q343 631 412 599L385 444Q307 470 276 470Q232 470 215 432T198 305Z" />
<glyph unicode="D" glyph-name="D" horiz-adv-x="526" d="M506 324Q506 0 250 0H44V621H254Q391 621 448 545T506 324ZM300 144T315 181T331 307T315 433T244 470H214V144H247Q300 144 315 181Z" />
<glyph unicode="E" glyph-name="E" horiz-adv-x="404" d="M380 0H44V621H390L380 468H215V375H358V243H215V140H390L380 0Z" />
<glyph unicode="F" glyph-name="F" horiz-adv-x="385" d="M380 468H215V375H348V243H215V0H44V621H390L380 468Z" />
<glyph unicode="G" glyph-name="G" horiz-adv-x="519" d="M418 436Q322 465 278 465T217 426T200 303T215 180T279 141Q293 141 333 149V225H288V343H479V0H361L345 32H341Q324 18 314 11Q286 -10 235 -10Q26 -10 26 306Q26 464 81 547T266 631Q370 631 445 599L418 436Z" />
<glyph unicode="H" glyph-name="H" horiz-adv-x="543" d="M503 0H333V235H216V0H44V621H216V377H333V621H503V0Z" />
<glyph unicode="I" glyph-name="I" horiz-adv-x="278" d="M224 0H54V621H224V0Z" />
<glyph unicode="J" glyph-name="J" horiz-adv-x="288" d="M244 621V125Q244 48 209 19T80 -10H29L16 126H50Q67 126 71 130T76 150V621H244Z" />
<glyph unicode="K" glyph-name="K" horiz-adv-x="485" d="M484 0H295L220 234H210V0H44V621H210V361H220L310 621H494L373 300L484 0Z" />
<glyph unicode="L" glyph-name="L" horiz-adv-x="362" d="M360 0H44V621H215V139H370L360 0Z" />
<glyph unicode="M" glyph-name="M" horiz-adv-x="683" d="M645 0H488V324H479L420 0H259L203 324H193V0H38L59 621H284L340 285H348L402 621H624L645 0Z" />
<glyph unicode="N" glyph-name="N" horiz-adv-x="541" d="M497 0H333L204 289H196V0H44V621H213L336 323H344V621H497V0Z" />
<glyph unicode="O" glyph-name="O" horiz-adv-x="538" d="M139 631T270 631T457 557T514 317T456 70T268 -10T81 69T24 314T81 556ZM342 408T328 440T269 473T211 441T198 317V293Q198 196 212 166T271 135T329 164T342 284V316Q342 408 328 440Z" />
<glyph unicode="P" glyph-name="P" horiz-adv-x="464" d="M258 203H212V0H44V621H247Q354 621 406 572T458 411T409 251T258 203ZM286 355T286 399T276 461T236 479H212V321H240Q268 321 277 338Z" />
<glyph unicode="Q" glyph-name="Q" horiz-adv-x="538" d="M139 631T270 631T457 557T514 320Q514 214 488 148T405 38V34L531 23L520 -106H501Q428 -106 370 -72L263 -10Q138 -10 81 72T24 318T81 556ZM342 408T328 440T269 473T211 441T198 317V293Q198 196 212
166T271 135T329 164T342 284V316Q342 408 328 440Z" />
<glyph unicode="R" glyph-name="R" horiz-adv-x="494" d="M469 424Q469 368 452 331T399 264L482 0H297L235 224H212V0H44V621H276Q376 621 422 574T469 424ZM264 329T275 344T286 398T275 453T239 469H212V329H238Q264 329 275 344Z" />
<glyph unicode="S" glyph-name="S" horiz-adv-x="427" d="M16 523T68 577T210 631T396 613L376 453Q277 476 240 476Q193 476 193 438Q193 423 215 409T270 380T334 343T388 281T411 189Q411 94 360 42T216 -10T33 19L44 168Q151 137 193 137T235 174Q235 193
213 209T158 241T94 278T39 339T16 434Q16 523 68 577Z" />
<glyph unicode="T" glyph-name="T" horiz-adv-x="410" d="M405 470H289V0H118V470H-5L5 621H415L405 470Z" />
<glyph unicode="U" glyph-name="U" horiz-adv-x="543" d="M219 173T232 158T274 143T315 157T327 205V621H499V195Q499 88 441 39T269 -10T100 38T44 193V621H219V204Q219 173 232 158Z" />
<glyph unicode="V" glyph-name="V" horiz-adv-x="505" d="M493 621L388 0H124L12 621H201L255 214H272L313 621H493Z" />
<glyph unicode="W" glyph-name="W" horiz-adv-x="681" d="M661 621L605 0H399L345 275H337L292 0H85L20 621H184L210 292H220L262 621H429L475 292H485L503 621H661Z" />
<glyph unicode="X" glyph-name="X" horiz-adv-x="488" d="M482 0H287L245 198H237L190 0H6L103 322L14 621H216L250 437H258L295 621H471L390 322L482 0Z" />
<glyph unicode="Y" glyph-name="Y" horiz-adv-x="464" d="M464 621L316 192V0H146V192L0 621H188L233 419H241L284 621H464Z" />
<glyph unicode="Z" glyph-name="Z" horiz-adv-x="452" d="M442 0H34L30 92L213 466H20L10 621H432L437 523L263 143H442V0Z" />
<glyph unicode="[" glyph-name="bracketleft" horiz-adv-x="316" d="M284 -137H48V641H284V512H218V-9H284V-137Z" />
<glyph unicode="\" glyph-name="backslash" horiz-adv-x="361" d="M206 -147L-10 621H156L371 -147H206Z" />
<glyph unicode="]" glyph-name="bracketright" horiz-adv-x="316" d="M268 -137H32V-9H98V512H32V641H268V-137Z" />
<glyph unicode="^" glyph-name="asciicircum" horiz-adv-x="500" d="M326 655L391 520H286L251 576L216 520H109L175 655H326Z" />
<glyph unicode="_" glyph-name="underscore" horiz-adv-x="402" d="M402 -137H0V-33H402V-137Z" />
<glyph unicode="`" glyph-name="grave" horiz-adv-x="500" d="M223 520L115 660H273L338 520H223Z" />
<glyph unicode="a" glyph-name="a" horiz-adv-x="436" d="M391 354L386 147Q386 128 395 122T428 115L413 -6Q355 -10 349 -10Q275 -10 255 41H250Q213 -10 136 -10Q77 -10 46 28T14 132Q14 215 65 247T228 289V313Q228 341 200 341Q152 341 50 312L25 458Q153
491 238 491T357 458T391 354ZM198 107Q235 107 235 146V195Q198 190 183 180T167 144Q167 107 198 107Z" />
<glyph unicode="b" glyph-name="b" horiz-adv-x="466" d="M380 490T411 436T442 249T409 53T280 -10Q205 -10 175 29H171L161 0H30V641H197V468H201Q234 490 286 490Q380 490 411 436ZM272 168T273 185T274 249T267 322T239 348T196 336V129Q215 120 232 120T257
126T268 150Z" />
<glyph unicode="c" glyph-name="c" horiz-adv-x="345" d="M210 345T200 319T190 236T199 155T239 130T319 141L337 13Q268 -10 214 -10Q119 -10 71 54T22 233T72 419T217 491Q288 491 345 467L327 320Q269 345 240 345Z" />
<glyph unicode="d" glyph-name="d" horiz-adv-x="477" d="M454 -6L387 -10Q310 -10 293 41H288Q255 -10 187 -10Q97 -10 61 53T24 240T65 428T183 491Q236 491 265 466V641H432V147Q432 128 440 122T469 115L454 -6ZM206 350T199 325T192 252T193 187T197 153T208
129T233 122T270 131V338Q249 350 228 350Z" />
<glyph unicode="e" glyph-name="e" horiz-adv-x="442" d="M230 348Q204 348 196 331T188 277H275V301Q275 348 230 348ZM234 491Q337 491 381 442T426 300Q426 288 419 192H191Q191 117 260 117Q293 117 389 140L403 16Q319 -10 235 -10Q132 -10 77 57T22 241Q22
491 234 491Z" />
<glyph unicode="f" glyph-name="f" horiz-adv-x="293" d="M188 648Q250 648 318 642L304 496Q259 501 239 501T218 483V465H300L292 341H220V0H53V341H9V465H53V515Q53 648 188 648Z" />
<glyph unicode="g" glyph-name="g" horiz-adv-x="450" d="M175 -44H278Q296 -44 296 -28V-24Q296 -9 278 -9H175Q159 -9 159 -25V-29Q159 -44 175 -44ZM215 491H451V379H379V374Q411 346 411 301Q411 141 230 141H182Q164 141 164 125T181 108H317Q432 108 432
8Q432 -74 377 -110T225 -147T79 -127T29 -50Q29 -19 68 2V6Q19 33 19 84Q19 144 96 175Q60 201 43 235T25 327Q25 406 76 448T215 491ZM259 331T252 345T224 360T197 346T189 301Q189 240 225 240Q259 240 259 299Q259 331 252 345Z" />
<glyph unicode="h" glyph-name="h" horiz-adv-x="467" d="M201 444Q256 491 320 491T410 461T437 369V0H267V312Q267 337 245 337Q217 337 198 323V0H30V641H197V444H201Z" />
<glyph unicode="i" glyph-name="i" horiz-adv-x="232" d="M199 0H34V474H199V0ZM26 530T26 570T47 629T116 648T185 629T206 571T185 513T116 494T47 512Z" />
<glyph unicode="j" glyph-name="j" horiz-adv-x="248" d="M209 474V-12Q209 -90 175 -118T46 -147H-4L-18 -9H16Q33 -9 37 -5T42 15V474H209ZM33 530T33 570T54 629T123 648T192 629T213 571T192 513T123 494T54 512Z" />
<glyph unicode="k" glyph-name="k" horiz-adv-x="442" d="M443 0H258L197 184H193V0H30V641H195V288H199L272 479H447L346 240L443 0Z" />
<glyph unicode="l" glyph-name="l" horiz-adv-x="233" d="M30 110V641H195V163Q195 146 202 139T229 132L216 -10H161Q95 -10 63 17T30 110Z" />
<glyph unicode="m" glyph-name="m" horiz-adv-x="706" d="M436 444Q491 491 557 491T649 461T676 369V0H506V312Q506 337 484 337Q456 337 437 323V0H267V312Q267 337 245 337Q217 337 198 323V0H30V479H183L193 444H197Q252 491 327 491T426 435L436 444Z" />
<glyph unicode="n" glyph-name="n" horiz-adv-x="467" d="M197 444Q252 491 318 491T410 461T437 369V0H267V312Q267 337 245 337Q217 337 198 323V0H30V479H183L193 444H197Z" />
<glyph unicode="o" glyph-name="o" horiz-adv-x="458" d="M22 373T72 432T230 491T387 433T436 243T388 50T231 -10T72 50T22 241ZM256 356T230 356T197 336T190 252V228Q190 157 197 136T229 115T262 136T269 222V251Q269 316 263 336Z" />
<glyph unicode="p" glyph-name="p" horiz-adv-x="466" d="M198 11V-137H30V479H168L178 449H183Q211 490 293 490T408 433T442 246T407 53T276 -11Q232 -11 202 11H198ZM272 168T273 185T274 249T267 322T239 348T196 336V129Q215 120 232 120T257 126T268 150Z" />
<glyph unicode="q" glyph-name="q" horiz-adv-x="466" d="M268 -137V15H264Q229 -10 188 -10Q98 -10 61 53T24 239T65 426T179 491T283 449H288L298 479H436V-137H268ZM206 350T199 325T192 252T193 187T197 153T208 129T233 122T270 131V338Q249 350 228 350Z" />
<glyph unicode="r" glyph-name="r" horiz-adv-x="313" d="M196 269V0H30V479H176L186 450H190Q213 476 236 483T313 491L306 331H260Q221 331 209 319T196 269Z" />
<glyph unicode="s" glyph-name="s" horiz-adv-x="342" d="M4 410T48 450T171 491T329 471L312 332Q210 355 175 355Q154 355 154 338Q154 327 177 318Q257 289 297 252T338 141T300 29T184 -10T27 10L38 145Q138 118 167 118T197 132T175 154Q86 188 45 226T4 337Z" />
<glyph unicode="t" glyph-name="t" horiz-adv-x="317" d="M300 -1Q226 -10 172 -10T87 18T56 117V349H8V473H64L73 565H224V473H313L306 349H223V150Q223 129 243 129Q245 129 305 132L300 -1Z" />
<glyph unicode="u" glyph-name="u" horiz-adv-x="467" d="M149 -10Q30 -10 30 122V479H200V163Q200 138 222 138Q250 138 269 152V479H437V2H278V37H274Q219 -10 149 -10Z" />
<glyph unicode="v" glyph-name="v" horiz-adv-x="441" d="M441 479L339 0H103L0 479H176L219 172H232L278 479H441Z" />
<glyph unicode="w" glyph-name="w" horiz-adv-x="578" d="M573 479L512 0H329L290 202H283L245 0H66L5 479H159L180 237H188L222 479H361L394 237H403L425 479H573Z" />
<glyph unicode="x" glyph-name="x" horiz-adv-x="433" d="M427 0H250L216 141H210L178 0H6L87 233L6 479H188L217 326H223L254 479H425L345 236L427 0Z" />
<glyph unicode="y" glyph-name="y" horiz-adv-x="445" d="M445 479L321 -14Q302 -88 265 -117T144 -147H44L29 -18H85Q119 -18 119 9Q119 15 115 35L0 479H178L223 180H232L281 479H445Z" />
<glyph unicode="z" glyph-name="z" horiz-adv-x="393" d="M381 0H22L18 96L166 339H12V479H371L377 390L234 138H381V0Z" />
<glyph unicode="{" glyph-name="braceleft" horiz-adv-x="335" d="M293 -137H183Q118 -137 90 -107T62 -8V156Q62 183 53 188T8 194V322Q44 322 53 327T62 359V504Q62 580 89 610T183 641H293V508H225V348Q225 308 214 291T177 260V253Q203 242 214 224T225 167V-10H293V-137Z"
/>
<glyph unicode="|" glyph-name="bar" horiz-adv-x="337" d="M247 -147H90V621H247V-147Z" />
<glyph unicode="}" glyph-name="braceright" horiz-adv-x="335" d="M152 -137H42V-10H110V167Q110 205 121 223T158 253V260Q132 273 121 290T110 348V508H42V641H152Q219 641 246 611T273 504V359Q273 332 281 327T327 322V194Q292 194 283 189T273 156V-8Q273
-77 245 -107T152 -137Z" />
<glyph unicode="~" glyph-name="asciitilde" horiz-adv-x="500" d="M411 660V652Q411 588 393 555T321 522Q285 522 241 538L217 546V511H108V521Q108 586 127 618T194 651Q210 651 283 632L303 627V660H411Z" />
<glyph unicode="&#xa0;" glyph-name="nbspace" horiz-adv-x="210" />
<glyph unicode="&#xa1;" glyph-name="exclamdown" horiz-adv-x="298" d="M217 294L228 -137H58L72 294H217ZM230 416Q230 376 209 357T142 337T75 356T54 418Q54 495 142 495T230 416Z" />
<glyph unicode="&#xa2;" glyph-name="cent" horiz-adv-x="397" d="M222 345T212 319T202 236T211 155T251 130T331 141L349 13Q318 2 280 -5V-79H148V5Q34 53 34 231Q34 318 63 381T148 473V568H280V487Q320 483 357 467L339 320Q281 345 252 345Z" />
<glyph unicode="&#xa3;" glyph-name="sterling" horiz-adv-x="563" d="M302 631Q364 631 470 612L450 451Q362 470 342 470Q332 470 332 456T351 380H444L434 280H363V219Q363 161 343 116L390 96H397V155H547Q547 58 514 11T403 -37Q361 -37 333 -28T262 2H254Q206
-23 147 -23T50 9T12 102T45 194T120 225T189 213H193V280H100V380H169Q143 458 143 489Q143 631 302 631ZM133 116T133 96T154 76T191 93Q168 116 151 116Z" />
<glyph unicode="&#xa4;" glyph-name="currency" horiz-adv-x="779" d="M84 76L54 126L178 198Q161 252 161 301T173 395L48 468L79 521L199 452Q268 542 393 542T587 454L701 521L731 468L614 400Q627 355 627 305T607 197L727 126L695 75L575 146Q506 72 390
72T206 148Q163 124 84 76ZM391 122Q565 122 565 306Q565 394 522 442T391 490Q219 490 219 305Q219 214 264 168T391 122Z" />
<glyph unicode="&#xa5;" glyph-name="yen" horiz-adv-x="504" d="M484 621L378 316H453V217H344L336 192V186H453V89H336V0H166V89H52V186H166V192L157 217H52V316H124L20 621H208L253 419H261L304 621H484Z" />
<glyph unicode="&#xa6;" glyph-name="brokenbar" horiz-adv-x="337" d="M247 -147H90V177H247V-147ZM247 621V325H90V621H247Z" />
<glyph unicode="&#xa7;" glyph-name="section" horiz-adv-x="440" d="M273 200Q274 203 274 213T272 233T264 251T253 265T236 280T218 293T195 308T171 324Q170 318 170 304T176 277T198 251Q221 232 273 200ZM369 369T388 333T408 246T398 164T362 96Q373 68
373 30Q373 -54 329 -100T200 -147Q149 -147 47 -127L59 30Q167 1 196 1T226 29Q226 45 206 61T158 95T101 135T52 193T32 273Q32 351 79 412Q66 438 66 474Q66 557 115 602T243 648Q275 648 298 644T344 636T382 629L360 478Q269 499 244 499T219 479Q219 466
238 453T286 424T341 389Z" />
<glyph unicode="&#xa8;" glyph-name="dieresis" horiz-adv-x="500" d="M142 519T126 534T109 577T125 620T172 636T219 621T236 578Q236 519 170 519Q142 519 126 534ZM311 519T295 534T278 577T295 620T342 636T388 621T405 578T389 535T342 519Z" />
<glyph unicode="&#xa9;" glyph-name="copyright" horiz-adv-x="940" d="M466 519Q200 519 200 232T469 -55Q603 -55 669 16T735 228T668 444T466 519ZM40 435T154 551T470 667T786 551T900 234T782 -82T463 -198T151 -85T40 232ZM439 172T449 149T486 125T571
141L594 15Q517 -10 465 -10Q372 -10 330 51T288 231T332 414T476 478Q534 478 594 449L570 315Q507 336 483 336T449 312T439 230Z" />
<glyph unicode="&#xaa;" glyph-name="ordfeminine" horiz-adv-x="380" d="M314 543L310 398Q310 385 317 380T340 375L329 291Q299 288 284 288Q232 288 218 324H215Q190 288 142 288Q50 288 50 387Q50 445 86 467T200 497V514Q200 534 180 534Q143 534 75 513L57
616Q151 639 208 639T290 616T314 543ZM179 370Q204 370 204 397V431Q179 428 168 421T157 396Q157 370 179 370Z" />
<glyph unicode="&#xab;" glyph-name="guillemotleft" horiz-adv-x="527" d="M24 207V269L200 477L275 417L170 242L276 67L194 4L24 207ZM234 207V269L407 477L484 417L379 242L485 67L401 4L234 207Z" />
<glyph unicode="&#xac;" glyph-name="logicalnot" horiz-adv-x="488" d="M288 130V231H52V357H430V130H288Z" />
<glyph unicode="&#xae;" glyph-name="registered" horiz-adv-x="940" d="M514 293Q514 315 507 325T480 335H458V252H482Q514 252 514 293ZM654 314Q654 231 608 189L670 28Q735 107 735 238T668 444T466 519Q200 519 200 231Q200 89 267 17T465 -55Q573 -55 647
0H523L473 146H465V0H314V467H491Q654 467 654 314ZM40 435T154 551T470 667T786 551T900 234T782 -82T463 -198T151 -85T40 232Z" />
<glyph unicode="&#xaf;" glyph-name="overscore" horiz-adv-x="500" d="M395 530H125V645H395V530Z" />
<glyph unicode="&#xb0;" glyph-name="degree" horiz-adv-x="302" d="M212 631T239 601T266 507T239 412T151 382T63 412T36 505T63 600T151 631ZM176 487T176 506T171 533T151 542T131 534T125 507T130 480T150 472T170 479Z" />
<glyph unicode="&#xb1;" glyph-name="plusminus" horiz-adv-x="482" d="M430 298H304V173H174V298H52V424H174V554H304V424H430V298ZM430 0H52V126H430V0Z" />
<glyph unicode="&#xb2;" glyph-name="twosuperior" horiz-adv-x="362" d="M44 594Q112 631 179 631T281 597T317 498Q317 455 303 419T272 359T214 289H318V189H61L55 260Q105 312 130 341T176 407T198 468Q198 515 158 515Q130 515 66 486L44 594Z" />
<glyph unicode="&#xb3;" glyph-name="threesuperior" horiz-adv-x="363" d="M181 631Q312 631 312 517Q312 454 259 419V416Q319 389 319 320Q319 182 177 182Q123 182 56 210L81 308Q138 287 161 287Q194 287 194 323Q194 363 150 363H107V454H151Q186 454 186
488T154 523Q130 523 72 499L44 594Q114 631 181 631Z" />
<glyph unicode="&#xb4;" glyph-name="acute" horiz-adv-x="500" d="M376 660L268 520H153L216 660H376Z" />
<glyph unicode="&#xb5;" glyph-name="mu" horiz-adv-x="519" d="M242 -10Q218 -10 196 0V-144H30V474H198V184Q198 132 246 132T295 184V474H465V144Q465 113 511 113L490 -10H453Q384 -10 349 28H345Q307 -10 242 -10Z" />
<glyph unicode="&#xb6;" glyph-name="paragraph" horiz-adv-x="576" d="M522 -130H381V515H350V-130H208V193Q120 193 70 248T20 409T79 574T242 634H522V-130Z" />
<glyph unicode="&#xb7;" glyph-name="middot" horiz-adv-x="346" d="M273 216T177 216T81 305T177 395T273 306Z" />
<glyph unicode="&#xb8;" glyph-name="cedilla" horiz-adv-x="500" d="M320 -48T336 -62T352 -104T328 -151T255 -171T163 -142L197 -79Q238 -110 254 -110T270 -101T257 -84L240 -74Q217 -62 217 -42T232 -8H297Q288 -17 288 -24T304 -40Z" />
<glyph unicode="&#xb9;" glyph-name="onesuperior" horiz-adv-x="279" d="M211 186H94V509H44V583L115 621H211V186Z" />
<glyph unicode="&#xba;" glyph-name="ordmasculine" horiz-adv-x="388" d="M48 556T83 597T194 639T303 599T338 465T305 330T195 288T83 330T48 464ZM212 544T194 544T171 530T166 471V455Q166 405 171 390T194 375T216 389T221 450V471Q221 516 217 530Z" />
<glyph unicode="&#xbb;" glyph-name="guillemotright" horiz-adv-x="527" d="M503 269V207L333 4L251 67L357 242L252 417L327 477L503 269ZM293 269V207L126 4L42 67L148 242L43 417L120 477L293 269Z" />
<glyph unicode="&#xbc;" glyph-name="onequarter" horiz-adv-x="800" d="M493 631L313 -10H196L375 631H493ZM751 85H702V0H585V85H426L414 168L557 435H702V179H756L751 85ZM588 179V286H584L527 179H588ZM211 186H94V509H44V583L115 621H211V186Z" />
<glyph unicode="&#xbd;" glyph-name="onehalf" horiz-adv-x="776" d="M493 631L313 -10H196L375 631H493ZM211 186H94V509H44V583L115 621H211V186ZM458 405Q526 442 593 442T695 408T731 309Q731 266 717 230T686 170T628 100H732V0H475L469 71Q519 123 544 152T590
218T612 279Q612 326 572 326Q544 326 480 297L458 405Z" />
<glyph unicode="&#xbe;" glyph-name="threequarters" horiz-adv-x="878" d="M571 631L391 -10H274L453 631H571ZM181 631Q312 631 312 517Q312 454 259 419V416Q319 389 319 320Q319 182 177 182Q123 182 56 210L81 308Q138 287 161 287Q194 287 194 323Q194 363
150 363H107V454H151Q186 454 186 488T154 523Q130 523 72 499L44 594Q114 631 181 631ZM829 85H780V0H663V85H504L492 168L635 435H780V179H834L829 85ZM666 179V286H662L605 179H666Z" />
<glyph unicode="&#xbf;" glyph-name="questiondown" horiz-adv-x="387" d="M30 21Q30 96 60 137T148 213L158 219V280H289V179Q289 148 279 132T244 104T207 85T186 66T175 31T186 -2T222 -14T335 9V-142Q251 -163 193 -163Q30 -163 30 21ZM307 417Q307 338 221
338T135 417Q135 455 154 473T218 492Q307 492 307 417Z" />
<glyph unicode="&#xc0;" glyph-name="Agrave" horiz-adv-x="498" d="M490 0H323L304 98H186L167 0H8L122 621H376L490 0ZM285 215L250 437H243L208 215H285ZM215 664L112 797H262L324 664H215Z" />
<glyph unicode="&#xc1;" glyph-name="Aacute" horiz-adv-x="498" d="M490 0H323L304 98H186L167 0H8L122 621H376L490 0ZM285 215L250 437H243L208 215H285ZM383 797L281 664H171L231 797H383Z" />
<glyph unicode="&#xc2;" glyph-name="Acircumflex" horiz-adv-x="498" d="M490 0H323L304 98H186L167 0H8L122 621H376L490 0ZM285 215L250 437H243L208 215H285ZM318 792L381 664H280L247 717L214 664H112L175 792H318Z" />
<glyph unicode="&#xc3;" glyph-name="Atilde" horiz-adv-x="498" d="M490 0H323L304 98H186L167 0H8L122 621H376L490 0ZM285 215L250 437H243L208 215H285ZM386 797V789Q386 729 369 698T300 666Q269 666 224 681L201 689V655H98V665Q98 727 116 757T179 788Q197
788 264 770L283 766V797H386Z" />
<glyph unicode="&#xc4;" glyph-name="Adieresis" horiz-adv-x="498" d="M490 0H323L304 98H186L167 0H8L122 621H376L490 0ZM285 215L250 437H243L208 215H285ZM133 663T118 678T102 718T117 759T161 774T205 760T222 719Q222 663 159 663Q133 663 118 678ZM294
663T278 678T262 718T278 759T322 774T367 760T383 719T367 678T323 663Z" />
<glyph unicode="&#xc5;" glyph-name="Aring" horiz-adv-x="498" d="M490 0H323L304 98H186L167 0H8L122 621H376L490 0ZM285 215L250 437H243L208 215H285ZM164 766T187 786T247 807T306 788T328 733T306 678T247 657T187 677T164 731ZM267 761T246 761T225 733T246
705T267 733Z" />
<glyph unicode="&#xc6;" glyph-name="AE" horiz-adv-x="698" d="M674 0H338V98H206L168 0H0L260 621H684L674 468H509V375H652V243H509V140H684L674 0ZM338 215V437H331L250 215H338Z" />
<glyph unicode="&#xc7;" glyph-name="Ccedilla" horiz-adv-x="466" d="M335 -41T350 -56T366 -99T341 -148T265 -169T171 -137L207 -67Q242 -100 270 -100Q278 -100 278 -93T267 -79L246 -67Q225 -54 225 -36T237 -6Q142 9 84 89T25 312T100 550T289 644T458 585L402
435Q383 454 371 464Q338 493 296 493T227 442T201 313T227 185T298 135Q357 135 403 186L459 44Q399 -3 309 -9Q304 -16 304 -21T319 -33Z" />
<glyph unicode="&#xc8;" glyph-name="Egrave" horiz-adv-x="404" d="M380 0H44V621H390L380 468H215V375H358V243H215V140H390L380 0ZM182 664L79 797H229L291 664H182Z" />
<glyph unicode="&#xc9;" glyph-name="Eacute" horiz-adv-x="404" d="M380 0H44V621H390L380 468H215V375H358V243H215V140H390L380 0ZM360 797L258 664H148L208 797H360Z" />
<glyph unicode="&#xca;" glyph-name="Ecircumflex" horiz-adv-x="404" d="M380 0H44V621H390L380 468H215V375H358V243H215V140H390L380 0ZM283 792L346 664H245L212 717L179 664H77L140 792H283Z" />
<glyph unicode="&#xcb;" glyph-name="Edieresis" horiz-adv-x="404" d="M380 0H44V621H390L380 468H215V375H358V243H215V140H390L380 0ZM105 663T90 678T74 718T89 759T133 774T177 760T194 719Q194 663 131 663Q105 663 90 678ZM266 663T250 678T234 718T250
759T294 774T339 760T355 719T339 678T295 663Z" />
<glyph unicode="&#xcc;" glyph-name="Igrave" horiz-adv-x="272" d="M209 0H39V621H209V0ZM82 664L-21 797H129L191 664H82Z" />
<glyph unicode="&#xcd;" glyph-name="Iacute" horiz-adv-x="272" d="M213 0H43V621H213V0ZM258 797L156 664H46L106 797H258Z" />
<glyph unicode="&#xce;" glyph-name="Icircumflex" horiz-adv-x="272" d="M209 0H39V621H209V0ZM196 792L259 664H158L125 717L92 664H-10L53 792H196Z" />
<glyph unicode="&#xcf;" glyph-name="Idieresis" horiz-adv-x="272" d="M209 0H39V621H209V0ZM15 663T0 678T-16 718T-1 759T43 774T87 760T104 719Q104 663 41 663Q15 663 0 678ZM176 663T160 678T144 718T160 759T204 774T249 760T265 719T249 678T205 663Z" />
<glyph unicode="&#xd0;" glyph-name="Eth" horiz-adv-x="526" d="M506 324Q506 0 250 0H44V250H-11V368H44V621H254Q391 621 448 545T506 324ZM269 250H214V144H247Q300 144 315 181T331 307T315 433T244 470H214V368H269V250Z" />
<glyph unicode="&#xd1;" glyph-name="Ntilde" horiz-adv-x="543" d="M498 0H334L205 289H197V0H45V621H214L337 323H345V621H498V0ZM419 797V789Q419 729 402 698T333 666Q302 666 257 681L234 689V655H131V665Q131 727 149 757T212 788Q230 788 297 770L316 766V797H419Z"
/>
<glyph unicode="&#xd2;" glyph-name="Ograve" horiz-adv-x="538" d="M139 631T270 631T457 557T514 317T456 70T268 -10T81 69T24 314T81 556ZM342 408T328 440T269 473T211 441T198 317V293Q198 196 212 166T271 135T329 164T342 284V316Q342 408 328 440ZM229
664L126 797H276L338 664H229Z" />
<glyph unicode="&#xd3;" glyph-name="Oacute" horiz-adv-x="538" d="M139 631T270 631T457 557T514 317T456 70T268 -10T81 69T24 314T81 556ZM342 408T328 440T269 473T211 441T198 317V293Q198 196 212 166T271 135T329 164T342 284V316Q342 408 328 440ZM412
797L310 664H200L260 797H412Z" />
<glyph unicode="&#xd4;" glyph-name="Ocircumflex" horiz-adv-x="538" d="M139 631T270 631T457 557T514 317T456 70T268 -10T81 69T24 314T81 556ZM342 408T328 440T269 473T211 441T198 317V293Q198 196 212 166T271 135T329 164T342 284V316Q342 408 328 440ZM340
792L403 664H302L269 717L236 664H134L197 792H340Z" />
<glyph unicode="&#xd5;" glyph-name="Otilde" horiz-adv-x="538" d="M139 631T270 631T457 557T514 317T456 70T268 -10T81 69T24 314T81 556ZM342 408T328 440T269 473T211 441T198 317V293Q198 196 212 166T271 135T329 164T342 284V316Q342 408 328 440ZM406
797V789Q406 729 389 698T320 666Q289 666 244 681L221 689V655H118V665Q118 727 136 757T199 788Q217 788 284 770L303 766V797H406Z" />
<glyph unicode="&#xd6;" glyph-name="Odieresis" horiz-adv-x="538" d="M139 631T270 631T457 557T514 317T456 70T268 -10T81 69T24 314T81 556ZM342 408T328 440T269 473T211 441T198 317V293Q198 196 212 166T271 135T329 164T342 284V316Q342 408 328 440ZM160
663T145 678T129 718T144 759T188 774T232 760T249 719Q249 663 186 663Q160 663 145 678ZM321 663T305 678T289 718T305 759T349 774T394 760T410 719T394 678T350 663Z" />
<glyph unicode="&#xd7;" glyph-name="multiply" horiz-adv-x="476" d="M334 110L240 209L144 109L52 201L152 297L52 392L142 481L237 382L332 481L424 389L325 294L423 199L334 110Z" />
<glyph unicode="&#xd8;" glyph-name="Oslash" horiz-adv-x="538" d="M270 631Q296 631 320 628L342 683H508L458 556Q514 483 514 317T456 70T267 -10Q255 -10 235 -8L210 -71H42L92 55Q24 132 24 306T81 556T270 631ZM342 414T328 446T269 479T211 447T198 323V299Q198
201 212 168T271 135T328 166T342 290V322Q342 414 328 446Z" />
<glyph unicode="&#xd9;" glyph-name="Ugrave" horiz-adv-x="543" d="M219 173T232 158T274 143T315 157T327 205V621H499V195Q499 88 441 39T269 -10T100 38T44 193V621H219V204Q219 173 232 158ZM226 664L123 797H273L335 664H226Z" />
<glyph unicode="&#xda;" glyph-name="Uacute" horiz-adv-x="543" d="M219 173T232 158T274 143T315 157T327 205V621H499V195Q499 88 441 39T269 -10T100 38T44 193V621H219V204Q219 173 232 158ZM425 797L323 664H213L273 797H425Z" />
<glyph unicode="&#xdb;" glyph-name="Ucircumflex" horiz-adv-x="543" d="M219 173T232 158T274 143T315 157T327 205V621H499V195Q499 88 441 39T269 -10T100 38T44 193V621H219V204Q219 173 232 158ZM345 792L408 664H307L274 717L241 664H139L202 792H345Z" />
<glyph unicode="&#xdc;" glyph-name="Udieresis" horiz-adv-x="543" d="M219 173T232 158T274 143T315 157T327 205V621H499V195Q499 88 441 39T269 -10T100 38T44 193V621H219V204Q219 173 232 158ZM163 663T148 678T132 718T147 759T191 774T235 760T252 719Q252
663 189 663Q163 663 148 678ZM324 663T308 678T292 718T308 759T352 774T397 760T413 719T397 678T353 663Z" />
<glyph unicode="&#xdd;" glyph-name="Yacute" horiz-adv-x="464" d="M464 621L316 192V0H146V192L0 621H188L233 419H241L284 621H464ZM389 787L287 654H177L237 787H389Z" />
<glyph unicode="&#xde;" glyph-name="Thorn" horiz-adv-x="462" d="M250 114H212V0H44V621H212V532H239Q350 532 400 484T450 323T402 163T250 114ZM278 266T278 310T268 372T228 390H212V232H232Q260 232 269 249Z" />
<glyph unicode="&#xdf;" glyph-name="germandbls" horiz-adv-x="504" d="M246 135L282 132Q327 132 327 191Q327 261 241 261V386Q275 386 290 401T305 449Q305 508 257 508Q220 508 220 469V0H53V341H9V465H53V481Q53 571 104 613T261 655T423 609T479 474T418
341V337Q500 295 500 179Q500 88 457 39T328 -10Q297 -10 241 0L246 135Z" />
<glyph unicode="&#xe0;" glyph-name="agrave" horiz-adv-x="436" d="M391 354L386 147Q386 128 395 122T428 115L413 -6Q355 -10 349 -10Q275 -10 255 41H250Q213 -10 136 -10Q77 -10 46 28T14 132Q14 215 65 247T228 289V313Q228 341 200 341Q152 341 50 312L25
458Q153 491 238 491T357 458T391 354ZM198 107Q235 107 235 146V195Q198 190 183 180T167 144Q167 107 198 107ZM180 520L72 660H230L295 520H180Z" />
<glyph unicode="&#xe1;" glyph-name="aacute" horiz-adv-x="436" d="M391 354L386 147Q386 128 395 122T428 115L413 -6Q355 -10 349 -10Q275 -10 255 41H250Q213 -10 136 -10Q77 -10 46 28T14 132Q14 215 65 247T228 289V313Q228 341 200 341Q152 341 50 312L25
458Q153 491 238 491T357 458T391 354ZM198 107Q235 107 235 146V195Q198 190 183 180T167 144Q167 107 198 107ZM363 660L255 520H140L203 660H363Z" />
<glyph unicode="&#xe2;" glyph-name="acircumflex" horiz-adv-x="436" d="M391 354L386 147Q386 128 395 122T428 115L413 -6Q355 -10 349 -10Q275 -10 255 41H250Q213 -10 136 -10Q77 -10 46 28T14 132Q14 215 65 247T228 289V313Q228 341 200 341Q152 341 50
312L25 458Q153 491 238 491T357 458T391 354ZM198 107Q235 107 235 146V195Q198 190 183 180T167 144Q167 107 198 107ZM291 655L357 520H251L216 576L181 520H74L140 655H291Z" />
<glyph unicode="&#xe3;" glyph-name="atilde" horiz-adv-x="436" d="M391 354L386 147Q386 128 395 122T428 115L413 -6Q355 -10 349 -10Q275 -10 255 41H250Q213 -10 136 -10Q77 -10 46 28T14 132Q14 215 65 247T228 289V313Q228 341 200 341Q152 341 50 312L25
458Q153 491 238 491T357 458T391 354ZM198 107Q235 107 235 146V195Q198 190 183 180T167 144Q167 107 198 107ZM359 660V652Q359 588 341 555T269 522Q233 522 189 538L165 546V511H56V521Q56 586 75 618T142 651Q158 651 231 632L251 627V660H359Z" />
<glyph unicode="&#xe4;" glyph-name="adieresis" horiz-adv-x="436" d="M391 354L386 147Q386 128 395 122T428 115L413 -6Q355 -10 349 -10Q275 -10 255 41H250Q213 -10 136 -10Q77 -10 46 28T14 132Q14 215 65 247T228 289V313Q228 341 200 341Q152 341 50 312L25
458Q153 491 238 491T357 458T391 354ZM198 107Q235 107 235 146V195Q198 190 183 180T167 144Q167 107 198 107ZM96 519T80 534T63 577T79 620T126 636T173 621T190 578Q190 519 124 519Q96 519 80 534ZM265 519T249 534T232 577T249 620T296 636T342 621T359
578T343 535T296 519Z" />
<glyph unicode="&#xe5;" glyph-name="aring" horiz-adv-x="436" d="M391 354L386 147Q386 128 395 122T428 115L413 -6Q355 -10 349 -10Q275 -10 255 41H250Q213 -10 136 -10Q77 -10 46 28T14 132Q14 215 65 247T228 289V313Q228 341 200 341Q152 341 50 312L25
458Q153 491 238 491T357 458T391 354ZM198 107Q235 107 235 146V195Q198 190 183 180T167 144Q167 107 198 107ZM125 628T149 649T212 671T274 651T297 593T274 535T212 513T149 534T125 591ZM233 622T211 622T189 593T211 563T233 592Z" />
<glyph unicode="&#xe6;" glyph-name="ae" horiz-adv-x="643" d="M81 -10T48 27T14 140T65 247T228 289V313Q228 341 200 341Q152 341 50 312L25 458Q153 491 245 491Q298 491 335 466Q377 491 436 491Q539 491 583 442T628 300Q628 242 622 196H393Q393 117 462
117Q495 117 591 140L609 18Q518 -10 430 -10T293 52H289Q235 -10 141 -10Q81 -10 48 27ZM432 350Q406 350 398 333T390 279H477V303Q477 350 432 350ZM198 107Q235 107 235 146V195Q198 190 183 180T167 144Q167 107 198 107Z" />
<glyph unicode="&#xe7;" glyph-name="ccedilla" horiz-adv-x="345" d="M320 324Q262 349 233 349T193 321T183 237T192 155T235 130T318 141L336 13Q278 -6 228 -9Q221 -18 221 -25T237 -40Q285 -64 285 -98T261 -151T188 -171T96 -142L130 -79Q171 -110 187 -110T203
-101T190 -84L173 -74Q150 -62 150 -43T165 -6Q91 7 53 69T15 239T65 419T210 491Q281 491 338 467L320 324Z" />
<glyph unicode="&#xe8;" glyph-name="egrave" horiz-adv-x="444" d="M232 348Q206 348 198 331T190 277H277V301Q277 348 232 348ZM236 491Q339 491 383 442T428 300Q428 288 421 192H193Q193 117 262 117Q295 117 391 140L405 16Q321 -10 237 -10Q134 -10 79
57T24 241Q24 491 236 491ZM204 520L96 660H254L319 520H204Z" />
<glyph unicode="&#xe9;" glyph-name="eacute" horiz-adv-x="444" d="M232 348Q206 348 198 331T190 277H277V301Q277 348 232 348ZM236 491Q339 491 383 442T428 300Q428 288 421 192H193Q193 117 262 117Q295 117 391 140L405 16Q321 -10 237 -10Q134 -10 79
57T24 241Q24 491 236 491ZM392 660L284 520H169L232 660H392Z" />
<glyph unicode="&#xea;" glyph-name="ecircumflex" horiz-adv-x="444" d="M232 348Q206 348 198 331T190 277H277V301Q277 348 232 348ZM236 491Q339 491 383 442T428 300Q428 288 421 192H193Q193 117 262 117Q295 117 391 140L405 16Q321 -10 237 -10Q134 -10
79 57T24 241Q24 491 236 491ZM313 655L379 520H273L238 576L203 520H96L162 655H313Z" />
<glyph unicode="&#xeb;" glyph-name="edieresis" horiz-adv-x="444" d="M232 348Q206 348 198 331T190 277H277V301Q277 348 232 348ZM236 491Q339 491 383 442T428 300Q428 288 421 192H193Q193 117 262 117Q295 117 391 140L405 16Q321 -10 237 -10Q134 -10
79 57T24 241Q24 491 236 491ZM117 519T101 534T84 577T100 620T147 636T194 621T211 578Q211 519 145 519Q117 519 101 534ZM286 519T270 534T253 577T270 620T317 636T363 621T380 578T364 535T317 519Z" />
<glyph unicode="&#xec;" glyph-name="igrave" horiz-adv-x="232" d="M199 0H34V474H199V0ZM83 520L-25 660H133L198 520H83Z" />
<glyph unicode="&#xed;" glyph-name="iacute" horiz-adv-x="232" d="M198 0H33V474H198V0ZM262 660L154 520H39L102 660H262Z" />
<glyph unicode="&#xee;" glyph-name="icircumflex" horiz-adv-x="232" d="M198 0H33V474H198V0ZM192 655L258 520H152L117 576L82 520H-25L41 655H192Z" />
<glyph unicode="&#xef;" glyph-name="idieresis" horiz-adv-x="232" d="M198 0H33V474H198V0ZM1 519T-15 534T-32 577T-16 620T31 636T78 621T95 578Q95 519 29 519Q1 519 -15 534ZM170 519T154 534T137 577T154 620T201 636T247 621T264 578T248 535T201 519Z" />
<glyph unicode="&#xf0;" glyph-name="eth" horiz-adv-x="472" d="M183 400Q221 400 257 394L260 397Q247 434 220 457L114 402V494L136 506Q103 512 63 512V643Q205 643 279 613L372 659V548L356 539Q450 445 450 265Q450 126 397 58T228 -10Q22 -10 22 208Q22
302 65 351T183 400ZM233 281Q208 281 199 260T190 199T199 140T233 122T267 144T275 208Q275 281 233 281Z" />
<glyph unicode="&#xf1;" glyph-name="ntilde" horiz-adv-x="473" d="M200 444Q255 491 321 491T413 461T440 369V0H270V312Q270 337 248 337Q220 337 201 323V0H33V479H186L196 444H200ZM379 660V652Q379 588 361 555T289 522Q253 522 209 538L185 546V511H76V521Q76
586 95 618T162 651Q178 651 251 632L271 627V660H379Z" />
<glyph unicode="&#xf2;" glyph-name="ograve" horiz-adv-x="462" d="M24 373T74 432T232 491T389 433T438 243T390 50T233 -10T74 50T24 241ZM258 356T232 356T199 336T192 252V228Q192 157 199 136T231 115T264 136T271 222V251Q271 316 265 336ZM206 520L98
660H256L321 520H206Z" />
<glyph unicode="&#xf3;" glyph-name="oacute" horiz-adv-x="462" d="M24 373T74 432T232 491T389 433T438 243T390 50T233 -10T74 50T24 241ZM258 356T232 356T199 336T192 252V228Q192 157 199 136T231 115T264 136T271 222V251Q271 316 265 336ZM382 660L274
520H159L222 660H382Z" />
<glyph unicode="&#xf4;" glyph-name="ocircumflex" horiz-adv-x="462" d="M24 373T74 432T232 491T389 433T438 243T390 50T233 -10T74 50T24 241ZM258 356T232 356T199 336T192 252V228Q192 157 199 136T231 115T264 136T271 222V251Q271 316 265 336ZM308 655L374
520H268L233 576L198 520H91L157 655H308Z" />
<glyph unicode="&#xf5;" glyph-name="otilde" horiz-adv-x="462" d="M24 373T74 432T232 491T389 433T438 243T390 50T233 -10T74 50T24 241ZM258 356T232 356T199 336T192 252V228Q192 157 199 136T231 115T264 136T271 222V251Q271 316 265 336ZM381 660V652Q381
588 363 555T291 522Q255 522 211 538L187 546V511H78V521Q78 586 97 618T164 651Q180 651 253 632L273 627V660H381Z" />
<glyph unicode="&#xf6;" glyph-name="odieresis" horiz-adv-x="462" d="M24 373T74 432T232 491T389 433T438 243T390 50T233 -10T74 50T24 241ZM258 356T232 356T199 336T192 252V228Q192 157 199 136T231 115T264 136T271 222V251Q271 316 265 336ZM116 519T100
534T83 577T99 620T146 636T193 621T210 578Q210 519 144 519Q116 519 100 534ZM285 519T269 534T252 577T269 620T316 636T362 621T379 578T363 535T316 519Z" />
<glyph unicode="&#xf7;" glyph-name="divide" horiz-adv-x="482" d="M430 231H52V357H430V231ZM154 85Q154 125 175 144T242 164T309 145T330 83Q330 6 242 6T154 85ZM154 499Q154 539 175 558T242 578T309 559T330 497Q330 420 242 420T154 499Z" />
<glyph unicode="&#xf8;" glyph-name="oslash" horiz-adv-x="445" d="M226 491Q248 491 258 490L282 550H413L371 444Q431 387 431 249T383 50T226 -10Q214 -10 192 -8L168 -71H35L78 37Q17 95 17 234T67 432T226 491ZM251 356T225 356T192 336T185 252V228Q185
157 192 136T224 115T257 136T264 222V251Q264 316 258 336Z" />
<glyph unicode="&#xf9;" glyph-name="ugrave" horiz-adv-x="467" d="M149 -10Q30 -10 30 122V479H200V163Q200 138 222 138Q250 138 269 152V479H437V2H278V37H274Q219 -10 149 -10ZM189 520L81 660H239L304 520H189Z" />
<glyph unicode="&#xfa;" glyph-name="uacute" horiz-adv-x="467" d="M149 -10Q30 -10 30 122V479H200V163Q200 138 222 138Q250 138 269 152V479H437V2H278V37H274Q219 -10 149 -10ZM403 660L295 520H180L243 660H403Z" />
<glyph unicode="&#xfb;" glyph-name="ucircumflex" horiz-adv-x="467" d="M149 -10Q30 -10 30 122V479H200V163Q200 138 222 138Q250 138 269 152V479H437V2H278V37H274Q219 -10 149 -10ZM311 655L377 520H271L236 576L201 520H94L160 655H311Z" />
<glyph unicode="&#xfc;" glyph-name="udieresis" horiz-adv-x="467" d="M149 -10Q30 -10 30 122V479H200V163Q200 138 222 138Q250 138 269 152V479H437V2H278V37H274Q219 -10 149 -10ZM118 519T102 534T85 577T101 620T148 636T195 621T212 578Q212 519 146 519Q118
519 102 534ZM287 519T271 534T254 577T271 620T318 636T364 621T381 578T365 535T318 519Z" />
<glyph unicode="&#xfd;" glyph-name="yacute" horiz-adv-x="445" d="M445 479L321 -14Q302 -88 265 -117T144 -147H44L29 -18H85Q119 -18 119 9Q119 15 115 35L0 479H178L223 180H232L281 479H445ZM395 660L287 520H172L235 660H395Z" />
<glyph unicode="&#xfe;" glyph-name="thorn" horiz-adv-x="466" d="M380 490T411 436T442 249T408 53T276 -11Q231 -11 198 8V-137H30V641H197V468H201Q230 490 286 490Q380 490 411 436ZM272 168T273 185T274 249T267 322T239 348T196 336V129Q215 120 232 120T257
126T268 150Z" />
<glyph unicode="&#xff;" glyph-name="ydieresis" horiz-adv-x="445" d="M445 479L321 -14Q302 -88 265 -117T144 -147H44L29 -18H85Q119 -18 119 9Q119 15 115 35L0 479H178L223 180H232L281 479H445ZM99 519T83 534T66 577T82 620T129 636T176 621T193 578Q193
519 127 519Q99 519 83 534ZM268 519T252 534T235 577T252 620T299 636T345 621T362 578T346 535T299 519Z" />
<glyph unicode="&#x2013;" glyph-name="endash" horiz-adv-x="429" d="M381 186H48V320H381V186Z" />
<glyph unicode="&#x2014;" glyph-name="emdash" horiz-adv-x="639" d="M591 186H48V320H591V186Z" />
<glyph unicode="&#x2018;" glyph-name="quoteleft" horiz-adv-x="237" d="M192 388T103 388T14 478T140 648L199 626L137 545L139 540Q192 529 192 467Q192 388 103 388Z" />
<glyph unicode="&#x2019;" glyph-name="quoteright" horiz-adv-x="237" d="M45 641T134 641T223 551T97 381L38 403L100 484L98 489Q45 500 45 562Q45 641 134 641Z" />
<glyph unicode="&#x201a;" glyph-name="quotesinglbase" horiz-adv-x="237" d="M45 141T134 141T223 51T97 -119L38 -97L100 -16L98 -11Q45 0 45 62Q45 141 134 141Z" />
<glyph unicode="&#x201c;" glyph-name="quotedblleft" horiz-adv-x="437" d="M392 388T303 388T214 478T340 648L399 626L337 545L339 540Q392 529 392 467Q392 388 303 388ZM192 388T103 388T14 478T140 648L199 626L137 545L139 540Q192 529 192 467Q192 388 103 388Z" />
<glyph unicode="&#x201d;" glyph-name="quotedblright" horiz-adv-x="437" d="M21 641T110 641T199 551T73 381L14 403L76 484L74 489Q21 500 21 562Q21 641 110 641ZM221 641T310 641T399 551T273 381L214 403L276 484L274 489Q221 500 221 562Q221 641 310 641Z" />
<glyph unicode="&#x201e;" glyph-name="quotedblbase" horiz-adv-x="437" d="M45 141T134 141T223 51T97 -119L38 -97L100 -16L98 -11Q45 0 45 62Q45 141 134 141ZM245 141T334 141T423 51T297 -119L238 -97L300 -16L298 -11Q245 0 245 62Q245 141 334 141Z" />
<glyph unicode="&#x2022;" glyph-name="bullet" horiz-adv-x="413" d="M209 171Q82 171 82 300T209 430Q331 430 331 301T209 171Z" />
<glyph unicode="&#x2039;" glyph-name="guilsinglleft" horiz-adv-x="318" d="M24 207V269L200 477L275 417L170 242L276 67L194 4L24 207Z" />
<glyph unicode="&#x203a;" glyph-name="guilsinglright" horiz-adv-x="317" d="M293 269V207L126 4L42 67L148 242L43 417L120 477L293 269Z" />
</font>
</defs>
</svg>
